  0
SECTION
  2
HEADER
  9
$ACADVER
  1
AC1018
  9
$ACADMAINTVER
 70
   104
  9
$DWGCODEPAGE
  3
ANSI_936
  9
$LASTSAVEDBY
  1
Administrator
  9
$INSBASE
 10
0.0
 20
0.0
 30
0.0
  9
$EXTMIN
 10
738.1600344673695
 20
169.4687988328984
 30
0.0
  9
$EXTMAX
 10
772.50817038355
 20
246.7835233741811
 30
0.0
  9
$LIMMIN
 10
0.0
 20
0.0
  9
$LIMMAX
 10
12.0
 20
9.0
  9
$ORTHOMODE
 70
     0
  9
$REGENMODE
 70
     1
  9
$FILLMODE
 70
     1
  9
$QTEXTMODE
 70
     0
  9
$MIRRTEXT
 70
     0
  9
$LTSCALE
 40
1.0
  9
$ATTMODE
 70
     1
  9
$TEXTSIZE
 40
0.2
  9
$TRACEWID
 40
0.05
  9
$TEXTSTYLE
  7
STANDARD
  9
$CLAYER
  8
标注
  9
$CELTYPE
  6
ByLayer
  9
$CECOLOR
 62
   256
  9
$CELTSCALE
 40
1.0
  9
$DISPSILH
 70
     0
  9
$DIMSCALE
 40
1.0
  9
$DIMASZ
 40
0.65
  9
$DIMEXO
 40
0.88
  9
$DIMDLI
 40
0.015
  9
$DIMRND
 40
0.0
  9
$DIMDLE
 40
0.0
  9
$DIMEXE
 40
0.32
  9
$DIMTP
 40
0.0
  9
$DIMTM
 40
0.0
  9
$DIMTXT
 40
0.65
  9
$DIMCEN
 40
0.09
  9
$DIMTSZ
 40
0.0
  9
$DIMTOL
 70
     0
  9
$DIMLIM
 70
     0
  9
$DIMTIH
 70
     0
  9
$DIMTOH
 70
     0
  9
$DIMSE1
 70
     0
  9
$DIMSE2
 70
     0
  9
$DIMTAD
 70
     0
  9
$DIMZIN
 70
     8
  9
$DIMBLK
  1

  9
$DIMASO
 70
     1
  9
$DIMSHO
 70
     1
  9
$DIMPOST
  1

  9
$DIMAPOST
  1
"
  9
$DIMALT
 70
     0
  9
$DIMALTD
 70
     1
  9
$DIMALTF
 40
0.03937
  9
$DIMLFAC
 40
1.0
  9
$DIMTOFL
 70
     1
  9
$DIMTVP
 40
0.0
  9
$DIMTIX
 70
     0
  9
$DIMSOXD
 70
     0
  9
$DIMSAH
 70
     0
  9
$DIMBLK1
  1

  9
$DIMBLK2
  1

  9
$DIMSTYLE
  2
副本STANDARD
  9
$DIMCLRD
 70
     3
  9
$DIMCLRE
 70
     3
  9
$DIMCLRT
 70
   256
  9
$DIMTFAC
 40
1.0
  9
$DIMGAP
 40
0.3
  9
$DIMJUST
 70
     0
  9
$DIMSD1
 70
     0
  9
$DIMSD2
 70
     0
  9
$DIMTOLJ
 70
     1
  9
$DIMTZIN
 70
     8
  9
$DIMALTZ
 70
     8
  9
$DIMALTTZ
 70
     8
  9
$DIMUPT
 70
     0
  9
$DIMDEC
 70
     3
  9
$DIMTDEC
 70
     3
  9
$DIMALTU
 70
     2
  9
$DIMALTTD
 70
     1
  9
$DIMTXSTY
  7
STANDARD
  9
$DIMAUNIT
 70
     0
  9
$DIMADEC
 70
     0
  9
$DIMALTRND
 40
0.0
  9
$DIMAZIN
 70
     0
  9
$DIMDSEP
 70
    46
  9
$DIMATFIT
 70
     3
  9
$DIMFRAC
 70
     2
  9
$DIMLDRBLK
  1

  9
$DIMLUNIT
 70
     5
  9
$DIMLWD
 70
    -2
  9
$DIMLWE
 70
    -2
  9
$DIMTMOVE
 70
     2
  9
$LUNITS
 70
     2
  9
$LUPREC
 70
     4
  9
$SKETCHINC
 40
0.1
  9
$FILLETRAD
 40
0.0
  9
$AUNITS
 70
     0
  9
$AUPREC
 70
     0
  9
$MENU
  1
.
  9
$ELEVATION
 40
0.0
  9
$PELEVATION
 40
0.0
  9
$THICKNESS
 40
0.0
  9
$LIMCHECK
 70
     0
  9
$CHAMFERA
 40
0.0
  9
$CHAMFERB
 40
0.0
  9
$CHAMFERC
 40
0.0
  9
$CHAMFERD
 40
0.0
  9
$SKPOLY
 70
     0
  9
$TDCREATE
 40
2455434.724808658
  9
$TDUCREATE
 40
2455434.391475324
  9
$TDUPDATE
 40
2458690.390326794
  9
$TDUUPDATE
 40
2458690.056993461
  9
$TDINDWG
 40
0.4214454514
  9
$TDUSRTIMER
 40
0.4214271412
  9
$USRTIMER
 70
     1
  9
$ANGBASE
 50
0.0
  9
$ANGDIR
 70
     0
  9
$PDMODE
 70
     0
  9
$PDSIZE
 40
0.0
  9
$PLINEWID
 40
0.0
  9
$SPLFRAME
 70
     0
  9
$SPLINETYPE
 70
     6
  9
$SPLINESEGS
 70
     8
  9
$HANDSEED
  5
6B98
  9
$SURFTAB1
 70
     6
  9
$SURFTAB2
 70
     6
  9
$SURFTYPE
 70
     6
  9
$SURFU
 70
     6
  9
$SURFV
 70
     6
  9
$UCSBASE
  2

  9
$UCSNAME
  2

  9
$UCSORG
 10
0.0
 20
0.0
 30
0.0
  9
$UCSXDIR
 10
1.0
 20
0.0
 30
0.0
  9
$UCSYDIR
 10
0.0
 20
1.0
 30
0.0
  9
$UCSORTHOREF
  2

  9
$UCSORTHOVIEW
 70
     0
  9
$UCSORGTOP
 10
0.0
 20
0.0
 30
0.0
  9
$UCSORGBOTTOM
 10
0.0
 20
0.0
 30
0.0
  9
$UCSORGLEFT
 10
0.0
 20
0.0
 30
0.0
  9
$UCSORGRIGHT
 10
0.0
 20
0.0
 30
0.0
  9
$UCSORGFRONT
 10
0.0
 20
0.0
 30
0.0
  9
$UCSORGBACK
 10
0.0
 20
0.0
 30
0.0
  9
$PUCSBASE
  2

  9
$PUCSNAME
  2

  9
$PUCSORG
 10
0.0
 20
0.0
 30
0.0
  9
$PUCSXDIR
 10
1.0
 20
0.0
 30
0.0
  9
$PUCSYDIR
 10
0.0
 20
1.0
 30
0.0
  9
$PUCSORTHOREF
  2

  9
$PUCSORTHOVIEW
 70
     0
  9
$PUCSORGTOP
 10
0.0
 20
0.0
 30
0.0
  9
$PUCSORGBOTTOM
 10
0.0
 20
0.0
 30
0.0
  9
$PUCSORGLEFT
 10
0.0
 20
0.0
 30
0.0
  9
$PUCSORGRIGHT
 10
0.0
 20
0.0
 30
0.0
  9
$PUCSORGFRONT
 10
0.0
 20
0.0
 30
0.0
  9
$PUCSORGBACK
 10
0.0
 20
0.0
 30
0.0
  9
$USERI1
 70
     0
  9
$USERI2
 70
     0
  9
$USERI3
 70
     0
  9
$USERI4
 70
     0
  9
$USERI5
 70
     0
  9
$USERR1
 40
0.0
  9
$USERR2
 40
0.0
  9
$USERR3
 40
0.0
  9
$USERR4
 40
0.0
  9
$USERR5
 40
2.5
  9
$WORLDVIEW
 70
     1
  9
$SHADEDGE
 70
     3
  9
$SHADEDIF
 70
    70
  9
$TILEMODE
 70
     1
  9
$MAXACTVP
 70
    64
  9
$PINSBASE
 10
0.0
 20
0.0
 30
0.0
  9
$PLIMCHECK
 70
     0
  9
$PEXTMIN
 10
1.000000000000000E+20
 20
1.000000000000000E+20
 30
1.000000000000000E+20
  9
$PEXTMAX
 10
-1.000000000000000E+20
 20
-1.000000000000000E+20
 30
-1.000000000000000E+20
  9
$PLIMMIN
 10
0.0
 20
0.0
  9
$PLIMMAX
 10
12.0
 20
9.0
  9
$UNITMODE
 70
     0
  9
$VISRETAIN
 70
     1
  9
$PLINEGEN
 70
     0
  9
$PSLTSCALE
 70
     1
  9
$TREEDEPTH
 70
  3020
  9
$CMLSTYLE
  2
Standard
  9
$CMLJUST
 70
     0
  9
$CMLSCALE
 40
1.0
  9
$PROXYGRAPHICS
 70
     1
  9
$MEASUREMENT
 70
     0
  9
$CELWEIGHT
370
    -1
  9
$ENDCAPS
280
     0
  9
$JOINSTYLE
280
     0
  9
$LWDISPLAY
290
     0
  9
$INSUNITS
 70
     0
  9
$HYPERLINKBASE
  1

  9
$STYLESHEET
  1

  9
$XEDIT
290
     1
  9
$CEPSNTYPE
380
     0
  9
$PSTYLEMODE
290
     1
  9
$FINGERPRINTGUID
  2
{E6ADA68F-75D8-467B-8C08-8724FF2F92B9}
  9
$VERSIONGUID
  2
{8B377A37-13C6-45B1-B5E3-15A26E68AB5B}
  9
$EXTNAMES
290
     1
  9
$PSVPSCALE
 40
0.0
  9
$OLESTARTUP
290
     0
  9
$SORTENTS
280
   127
  9
$INDEXCTL
280
     0
  9
$HIDETEXT
280
     0
  9
$XCLIPFRAME
290
     0
  9
$HALOGAP
280
     0
  9
$OBSCOLOR
 70
   257
  9
$OBSLTYPE
280
     0
  9
$INTERSECTIONDISPLAY
280
     0
  9
$INTERSECTIONCOLOR
 70
   257
  9
$DIMASSOC
280
     1
  9
$PROJECTNAME
  1

  0
ENDSEC
  0
SECTION
  2
CLASSES
  0
CLASS
  1
ACDBDICTIONARYWDFLT
  2
AcDbDictionaryWithDefault
  3
ObjectDBX Classes
 90
        0
 91
        1
280
     0
281
     0
  0
CLASS
  1
MATERIAL
  2
AcDbMaterial
  3
ObjectDBX Classes
 90
     1024
 91
        3
280
     0
281
     0
  0
CLASS
  1
VISUALSTYLE
  2
AcDbVisualStyle
  3
ObjectDBX Classes
 90
     4095
 91
       16
280
     0
281
     0
  0
CLASS
  1
TABLESTYLE
  2
AcDbTableStyle
  3
ObjectDBX Classes
 90
     4095
 91
        1
280
     0
281
     0
  0
CLASS
  1
SORTENTSTABLE
  2
AcDbSortentsTable
  3
ObjectDBX Classes
 90
        0
 91
        3
280
     0
281
     0
  0
CLASS
  1
DICTIONARYVAR
  2
AcDbDictionaryVar
  3
ObjectDBX Classes
 90
        0
 91
        1
280
     0
281
     0
  0
ENDSEC
  0
SECTION
  2
TABLES
  0
TABLE
  2
VPORT
  5
6546
330
0
100
AcDbSymbolTable
 70
     1
  0
VPORT
  5
6579
330
6546
100
AcDbSymbolTableRecord
100
AcDbViewportTableRecord
  2
*ACTIVE
 70
     0
 10
0.0
 20
0.0
 11
1.0
 21
1.0
 12
756.1491124343449
 22
206.7039616199696
 13
0.0
 23
0.0
 14
0.5
 24
0.5
 15
0.5
 25
0.5
 16
0.0
 26
0.0
 36
1.0
 17
0.0
 27
0.0
 37
0.0
 40
129.4421836535936
 41
2.205741626794258
 42
50.0
 43
0.0
 44
0.0
 50
0.0
 51
0.0
 71
     0
 72
 10000
 73
     1
 74
     3
 75
     0
 76
     0
 77
     0
 78
     0
281
     0
 65
     1
110
0.0
120
0.0
130
0.0
111
1.0
121
0.0
131
0.0
112
0.0
122
1.0
132
0.0
 79
     0
146
0.0
  0
ENDTAB
  0
TABLE
  2
LTYPE
  5
6543
330
0
100
AcDbSymbolTable
 70
    10
  0
LTYPE
  5
6566
330
6543
100
AcDbSymbolTableRecord
100
AcDbLinetypeTableRecord
  2
ByBlock
 70
     0
  3

 72
    65
 73
     0
 40
0.0
  0
LTYPE
  5
6567
330
6543
100
AcDbSymbolTableRecord
100
AcDbLinetypeTableRecord
  2
ByLayer
 70
     0
  3

 72
    65
 73
     0
 40
0.0
  0
LTYPE
  5
6568
330
6543
100
AcDbSymbolTableRecord
100
AcDbLinetypeTableRecord
  2
CONTINUOUS
 70
     0
  3
Solid line
 72
    65
 73
     0
 40
0.0
  0
LTYPE
  5
657A
330
6543
100
AcDbSymbolTableRecord
100
AcDbLinetypeTableRecord
  2
CENTER2
 70
     0
  3
Center (.5x) ___ _ ___ _ ___ _ ___ _ ___ _ ___
 72
    65
 73
     4
 40
28.575
 49
19.05
 74
     0
 49
-3.174999999999998
 74
     0
 49
3.174999999999998
 74
     0
 49
-3.174999999999998
 74
     0
  0
LTYPE
  5
657B
330
6543
100
AcDbSymbolTableRecord
100
AcDbLinetypeTableRecord
  2
HIDDEN2
 70
     0
  3
Hidden (.5x) _ _ _ _ _ _ _ _ _ _ _ _ _ _ _ _ _
 72
    65
 73
     2
 40
4.762499999999998
 49
3.174999999999998
 74
     0
 49
-1.587499999999999
 74
     0
  0
LTYPE
  5
657C
330
6543
100
AcDbSymbolTableRecord
100
AcDbLinetypeTableRecord
  2
HIDDEN
 70
     0
  3
Hidden __ __ __ __ __ __ __ __ __ __ __ __ __ _
 72
    65
 73
     2
 40
0.375
 49
0.25
 74
     0
 49
-0.125
 74
     0
  0
LTYPE
  5
657D
330
6543
100
AcDbSymbolTableRecord
100
AcDbLinetypeTableRecord
  2
PHANTOM2
 70
     0
  3
Phantom (.5x) ___ _ _ ___ _ _ ___ _ _ ___ _ _
 72
    65
 73
     6
 40
1.25
 49
0.625
 74
     0
 49
-0.125
 74
     0
 49
0.125
 74
     0
 49
-0.125
 74
     0
 49
0.125
 74
     0
 49
-0.125
 74
     0
  0
LTYPE
  5
657E
330
6543
100
AcDbSymbolTableRecord
100
AcDbLinetypeTableRecord
  2
CENTER
 70
     0
  3
Center ____ _ ____ _ ____ _ ____ _ ____ _ ____
 72
    65
 73
     4
 40
2.0
 49
1.25
 74
     0
 49
-0.25
 74
     0
 49
0.25
 74
     0
 49
-0.25
 74
     0
  0
LTYPE
  5
657F
330
6543
100
AcDbSymbolTableRecord
100
AcDbLinetypeTableRecord
  2
AMCONSTR
 70
     0
  3
_______________________
 72
    65
 73
     2
 40
9999.0
 49
9999.0
 74
     0
 49
0.0
 74
     0
  0
LTYPE
  5
6580
330
6543
100
AcDbSymbolTableRecord
100
AcDbLinetypeTableRecord
  2
AMZIGZAG2
 70
     0
  3
/\/-/\/-/\/-/\/-/\/-/\/
 72
    65
 73
     2
 40
0.4401
 49
0.0001
 74
     0
 49
-0.4400000000000003
 74
     0
  0
LTYPE
  5
6581
330
6543
100
AcDbSymbolTableRecord
100
AcDbLinetypeTableRecord
  2
ACANSTGB
 70
     0
  3
__ . . __ . .
 72
    65
 73
     6
 40
0.35433070866
 49
0.15748031496
 74
     0
 49
-0.03937007874
 74
     0
 49
0.03937007874
 74
     0
 49
-0.03937007874
 74
     0
 49
0.03937007874
 74
     0
 49
-0.03937007874
 74
     0
  0
LTYPE
  5
6582
330
6543
100
AcDbSymbolTableRecord
100
AcDbLinetypeTableRecord
  2
ACANSTGL
 70
     0
  3
_ _ _ _ _
 72
    65
 73
     2
 40
0.11811023622
 49
0.07874015748
 74
     0
 49
-0.03937007874
 74
     0
  0
ENDTAB
  0
TABLE
  2
LAYER
  5
6540
102
{ACAD_XDICTIONARY
360
6AB9
102
}
330
0
100
AcDbSymbolTable
 70
     8
  0
LAYER
  5
6563
330
6540
100
AcDbSymbolTableRecord
100
AcDbLayerTableRecord
  2
0
 70
     0
 62
     7
  6
CONTINUOUS
370
    -3
390
654D
  0
LAYER
  5
6578
330
6540
100
AcDbSymbolTableRecord
100
AcDbLayerTableRecord
  2
标注
 70
     0
 62
    80
  6
CONTINUOUS
370
    -3
390
654D
  0
LAYER
  5
6583
330
6540
100
AcDbSymbolTableRecord
100
AcDbLayerTableRecord
  2
中心线
 70
     0
 62
     1
  6
CENTER2
370
    -3
390
654D
  0
LAYER
  5
6584
330
6540
100
AcDbSymbolTableRecord
100
AcDbLayerTableRecord
  2
虚线
 70
     0
 62
     4
  6
HIDDEN2
370
    -3
390
654D
  0
LAYER
  5
6585
330
6540
100
AcDbSymbolTableRecord
100
AcDbLayerTableRecord
  2
DEFPOINTS
 70
     0
 62
     7
  6
CONTINUOUS
290
     0
370
    -3
390
654D
  0
LAYER
  5
6586
330
6540
100
AcDbSymbolTableRecord
100
AcDbLayerTableRecord
  2
细实线
 70
     0
 62
     7
  6
CONTINUOUS
370
    -3
390
654D
  0
LAYER
  5
6587
330
6540
100
AcDbSymbolTableRecord
100
AcDbLayerTableRecord
  2
标注线
 70
     0
 62
     3
  6
CONTINUOUS
370
    -3
390
654D
  0
LAYER
  5
6588
330
6540
100
AcDbSymbolTableRecord
100
AcDbLayerTableRecord
  2
截面层
 70
     0
 62
     6
  6
CONTINUOUS
370
    -3
390
654D
  0
ENDTAB
  0
TABLE
  2
STYLE
  5
6541
330
0
100
AcDbSymbolTable
 70
     2
  0
STYLE
  5
6564
330
6541
100
AcDbSymbolTableRecord
100
AcDbTextStyleTableRecord
  2
STANDARD
 70
     0
 40
0.0
 41
1.0
 50
0.0
 71
     0
 42
0.2
  3
ARIALUNI.TTF
  4

1001
ACAD
1000
@Arial Unicode MS
1071
    34338
  0
STYLE
  5
6589
330
6541
100
AcDbSymbolTableRecord
100
AcDbTextStyleTableRecord
  2
ACANSGDT
 70
     0
 40
0.0
 41
1.0
 50
0.0
 71
     0
 42
0.2
  3
amgdt.shx
  4

  0
ENDTAB
  0
TABLE
  2
VIEW
  5
6544
330
0
100
AcDbSymbolTable
 70
     0
  0
ENDTAB
  0
TABLE
  2
UCS
  5
6545
330
0
100
AcDbSymbolTable
 70
     0
  0
ENDTAB
  0
TABLE
  2
APPID
  5
6547
330
0
100
AcDbSymbolTable
 70
    26
  0
APPID
  5
6565
330
6547
100
AcDbSymbolTableRecord
100
AcDbRegAppTableRecord
  2
ACAD
 70
     0
  0
APPID
  5
658A
330
6547
100
AcDbSymbolTableRecord
100
AcDbRegAppTableRecord
  2
ACADANNOTATIVE
 70
     0
  0
APPID
  5
658B
330
6547
100
AcDbSymbolTableRecord
100
AcDbRegAppTableRecord
  2
ACAECLAYERSTANDARD
 70
     0
  0
APPID
  5
658C
330
6547
100
AcDbSymbolTableRecord
100
AcDbRegAppTableRecord
  2
ACAD_DSTYLE_DIMEXT_LENGTH
 70
     0
  0
APPID
  5
658D
330
6547
100
AcDbSymbolTableRecord
100
AcDbRegAppTableRecord
  2
ACAD_DSTYLE_DIMEXT_ENABLED
 70
     0
  0
APPID
  5
658E
330
6547
100
AcDbSymbolTableRecord
100
AcDbRegAppTableRecord
  2
ACAD_DSTYLE_DIMJOGGED_JOGA
 70
     0
  0
APPID
  5
658F
330
6547
100
AcDbSymbolTableRecord
100
AcDbRegAppTableRecord
  2
ACAD_DSTYLE_DIMARC_LENGTH_
 70
     0
  0
APPID
  5
6590
330
6547
100
AcDbSymbolTableRecord
100
AcDbRegAppTableRecord
  2
ACAD_PSEXT
 70
     0
  0
APPID
  5
6591
330
6547
100
AcDbSymbolTableRecord
100
AcDbRegAppTableRecord
  2
MCAD_NO_VIS
 70
     0
  0
APPID
  5
6592
330
6547
100
AcDbSymbolTableRecord
100
AcDbRegAppTableRecord
  2
ACAD_TEMP_GRAPHIC
 70
     0
  0
APPID
  5
6593
330
6547
100
AcDbSymbolTableRecord
100
AcDbRegAppTableRecord
  2
AD_DRAW
 70
     0
  0
APPID
  5
6594
330
6547
100
AcDbSymbolTableRecord
100
AcDbRegAppTableRecord
  2
ACATTRIBSERVICES
 70
     0
  0
APPID
  5
6595
330
6547
100
AcDbSymbolTableRecord
100
AcDbRegAppTableRecord
  2
DESIGNERASSEMBLIES
 70
     0
  0
APPID
  5
6596
330
6547
100
AcDbSymbolTableRecord
100
AcDbRegAppTableRecord
  2
ACADM_DIM_EDIT
 70
     0
  0
APPID
  5
6597
330
6547
100
AcDbSymbolTableRecord
100
AcDbRegAppTableRecord
  2
AMDT_DM_ADJ
 70
     0
  0
APPID
  5
6598
330
6547
100
AcDbSymbolTableRecord
100
AcDbRegAppTableRecord
  2
ACAD_DSTYLE_DIMJAG
 70
     0
  0
APPID
  5
6599
330
6547
100
AcDbSymbolTableRecord
100
AcDbRegAppTableRecord
  2
ACAD_DSTYLE_DIMBREAK
 70
     0
  0
APPID
  5
659A
330
6547
100
AcDbSymbolTableRecord
100
AcDbRegAppTableRecord
  2
ACAD_DSTYLE_DIMTALN
 70
     0
  0
APPID
  5
659B
330
6547
100
AcDbSymbolTableRecord
100
AcDbRegAppTableRecord
  2
GENIUS_GENODEF_13
 70
     0
  0
APPID
  5
659C
330
6547
100
AcDbSymbolTableRecord
100
AcDbRegAppTableRecord
  2
GENIUS_GENOBJ-N-FIL_13
 70
     0
  0
APPID
  5
659D
330
6547
100
AcDbSymbolTableRecord
100
AcDbRegAppTableRecord
  2
ACAD_EXEMPT_FROM_CAD_STANDARDS
 70
     0
  0
APPID
  5
659E
330
6547
100
AcDbSymbolTableRecord
100
AcDbRegAppTableRecord
  2
ACAD_MLEADERVER
 70
     0
  0
APPID
  5
659F
330
6547
100
AcDbSymbolTableRecord
100
AcDbRegAppTableRecord
  2
ACAD_DSTYLE_DIM_LINETYPE
 70
     0
  0
APPID
  5
65A0
330
6547
100
AcDbSymbolTableRecord
100
AcDbRegAppTableRecord
  2
ACAD_DSTYLE_DIM_EXT1_LINETYPE
 70
     0
  0
APPID
  5
65A1
330
6547
100
AcDbSymbolTableRecord
100
AcDbRegAppTableRecord
  2
ACAD_DSTYLE_DIM_EXT2_LINETYPE
 70
     0
  0
APPID
  5
65A2
330
6547
100
AcDbSymbolTableRecord
100
AcDbRegAppTableRecord
  2
ACAD_DSTYLE_DIMRADIAL_EXTENSION
 70
     0
  0
ENDTAB
  0
TABLE
  2
DIMSTYLE
  5
6548
330
0
100
AcDbSymbolTable
 70
    10
100
AcDbDimStyleTable
 71
     2
340
65A4
340
65AA
  0
DIMSTYLE
105
65A3
330
6548
100
AcDbSymbolTableRecord
100
AcDbDimStyleTableRecord
  2
STANDARD
 70
     0
274
     1
279
     2
284
     8
285
     8
286
     8
340
6564
  0
DIMSTYLE
105
65A4
102
{ACAD_REACTORS
330
6B08
330
6B16
330
6B24
330
6B32
330
6B4A
330
6B58
330
6B68
330
6B76
102
}
330
6548
100
AcDbSymbolTableRecord
100
AcDbDimStyleTableRecord
  2
副本STANDARD
 70
     0
  4
"
 41
0.65
 42
0.88
 43
0.015
 44
0.32
 73
     0
 74
     0
 78
     8
140
0.65
143
0.03937
147
0.3
171
     1
172
     1
176
     3
177
     3
178
   256
271
     3
272
     3
274
     1
276
     2
277
     5
279
     2
284
     8
285
     8
286
     8
340
6564
  0
DIMSTYLE
105
65A5
330
6548
100
AcDbSymbolTableRecord
100
AcDbDimStyleTableRecord
  2
AM_ANSI
 70
     0
  4
mm
 41
0.12
 42
0.05
 43
0.5
 44
0.1
 47
0.1
 48
0.1
 78
     7
140
0.12
141
0.0
146
0.71
147
0.06
176
   256
177
   256
178
     2
274
     1
279
     2
284
     8
285
     8
286
     8
340
6564
  0
DIMSTYLE
105
65A6
330
6548
100
AcDbSymbolTableRecord
100
AcDbDimStyleTableRecord
  2
AM_ANSI$3
 70
     0
  4
mm
 41
0.12
 42
0.05
 43
0.5
 44
0.1
 47
0.1
 48
0.1
 78
     7
140
0.12
141
0.0
146
0.71
147
0.06
176
   256
177
   256
178
     2
274
     1
279
     2
284
     8
285
     8
286
     8
340
6564
  0
DIMSTYLE
105
65A7
330
6548
100
AcDbSymbolTableRecord
100
AcDbDimStyleTableRecord
  2
AM_ANSI$4
 70
     0
  4
mm
 41
0.12
 42
0.05
 43
0.5
 44
0.1
 47
0.1
 48
0.1
 78
     7
140
0.12
141
0.0
146
0.71
147
0.06
176
   256
177
   256
178
     2
274
     1
279
     2
284
     8
285
     8
286
     8
340
6564
  0
DIMSTYLE
105
65A8
330
6548
100
AcDbSymbolTableRecord
100
AcDbDimStyleTableRecord
  2
AM_ANSI$7
 70
     0
  4
mm
 41
0.12
 42
0.05
 43
0.5
 44
0.1
 47
0.1
 48
0.1
 78
     7
140
0.12
141
0.0
146
0.71
147
0.06
176
   256
177
   256
178
     2
274
     1
279
     2
284
     8
285
     8
286
     8
340
6564
  0
DIMSTYLE
105
65A9
330
6548
100
AcDbSymbolTableRecord
100
AcDbDimStyleTableRecord
  2
AM_ANSI$SF
 70
     0
  4
mm
 41
0.12
 42
0.05
 43
0.5
 44
0.1
 47
0.1
 48
0.1
 75
     1
 76
     1
 78
     7
140
0.12
141
0.0
146
0.71
147
0.06
176
   256
177
   256
178
     2
274
     1
279
     2
284
     8
285
     8
286
     8
340
6564
  0
DIMSTYLE
105
65AA
330
6548
100
AcDbSymbolTableRecord
100
AcDbDimStyleTableRecord
  2
AM_ANSI$SH
 70
     0
  4
mm
 41
0.12
 42
0.05
 43
0.5
 44
0.1
 47
0.1
 48
0.1
 75
     1
 76
     1
 78
     7
140
0.12
141
0.0
146
0.71
147
0.06
173
     1
176
   256
177
   256
178
     2
274
     1
279
     2
284
     8
285
     8
286
     8
340
6564
  0
DIMSTYLE
105
65AB
330
6548
100
AcDbSymbolTableRecord
100
AcDbDimStyleTableRecord
  2
AM_ISO
 70
     0
  4
"
 41
3.5
 42
1.0
 43
10.0
 44
1.0
 47
0.1
 48
0.1
 73
     0
 74
     0
 77
     1
 78
     8
140
3.5
141
0.0
143
0.0393701
146
0.71
147
1.5
172
     1
176
   256
177
   256
178
     2
274
     1
279
     2
284
     8
285
     8
286
     8
340
6564
  0
DIMSTYLE
105
6AB8
330
6548
100
AcDbSymbolTableRecord
100
AcDbDimStyleTableRecord
  2
毫米英寸
 70
     0
  3
mm
  4
"
 41
18.0
 42
20.0
 43
3.75
 44
5.0
 45
0.0005
 73
     0
 74
     0
 78
     8
140
18.0
141
2.5
143
0.03937007874
147
2.0
170
     1
171
     3
172
     1
176
   256
177
   256
178
   256
179
     1
271
     1
272
     1
273
     7
274
     3
276
     2
283
     0
284
     8
285
    12
340
6564
371
     9
372
     9
1001
ACAD_DSTYLE_DIMBREAK
1070
   391
1040
3.75
1001
ACAD_DSTYLE_DIMJAG
1070
   388
1040
1.5
1001
ACAD_DSTYLE_DIMTALN
1070
   392
1070
     0
1001
ACAD_DSTYLE_DIMEXT_LENGTH
1070
   378
1040
8.0
1001
ACAD_DSTYLE_DIM_LINETYPE
1070
   380
1005
6567
  0
ENDTAB
  0
TABLE
  2
BLOCK_RECORD
  5
653F
330
0
100
AcDbSymbolTable
 70
   210
  0
BLOCK_RECORD
  5
6574
102
{ACAD_XDICTIONARY
360
6778
102
}
330
653F
100
AcDbSymbolTableRecord
100
AcDbBlockTableRecord
  2
*Model_Space
340
6577
  0
BLOCK_RECORD
  5
6570
330
653F
100
AcDbSymbolTableRecord
100
AcDbBlockTableRecord
  2
*Paper_Space
340
6573
  0
BLOCK_RECORD
  5
65AE
330
653F
100
AcDbSymbolTableRecord
100
AcDbBlockTableRecord
  2
$MODEL_SPACE
340
0
  0
BLOCK_RECORD
  5
65B0
330
653F
100
AcDbSymbolTableRecord
100
AcDbBlockTableRecord
  2
$PAPER_SPACE
340
0
  0
BLOCK_RECORD
  5
65B2
330
653F
100
AcDbSymbolTableRecord
100
AcDbBlockTableRecord
  2
*U2
340
0
  0
BLOCK_RECORD
  5
65B4
330
653F
100
AcDbSymbolTableRecord
100
AcDbBlockTableRecord
  2
*U3
340
0
  0
BLOCK_RECORD
  5
65B6
330
653F
100
AcDbSymbolTableRecord
100
AcDbBlockTableRecord
  2
*U4
340
0
  0
BLOCK_RECORD
  5
65B8
330
653F
100
AcDbSymbolTableRecord
100
AcDbBlockTableRecord
  2
*U5
340
0
  0
BLOCK_RECORD
  5
65BA
330
653F
100
AcDbSymbolTableRecord
100
AcDbBlockTableRecord
  2
*U6
340
0
  0
BLOCK_RECORD
  5
65BC
330
653F
100
AcDbSymbolTableRecord
100
AcDbBlockTableRecord
  2
*U7
340
0
  0
BLOCK_RECORD
  5
65BE
330
653F
100
AcDbSymbolTableRecord
100
AcDbBlockTableRecord
  2
*U8
340
0
  0
BLOCK_RECORD
  5
65C0
330
653F
100
AcDbSymbolTableRecord
100
AcDbBlockTableRecord
  2
*U9
340
0
  0
BLOCK_RECORD
  5
65C2
330
653F
100
AcDbSymbolTableRecord
100
AcDbBlockTableRecord
  2
*U10
340
0
  0
BLOCK_RECORD
  5
65C4
330
653F
100
AcDbSymbolTableRecord
100
AcDbBlockTableRecord
  2
*U11
340
0
  0
BLOCK_RECORD
  5
65C6
330
653F
100
AcDbSymbolTableRecord
100
AcDbBlockTableRecord
  2
*U12
340
0
  0
BLOCK_RECORD
  5
65C8
330
653F
100
AcDbSymbolTableRecord
100
AcDbBlockTableRecord
  2
*U13
340
0
  0
BLOCK_RECORD
  5
65CA
330
653F
100
AcDbSymbolTableRecord
100
AcDbBlockTableRecord
  2
*U14
340
0
  0
BLOCK_RECORD
  5
65CC
330
653F
100
AcDbSymbolTableRecord
100
AcDbBlockTableRecord
  2
*U15
340
0
  0
BLOCK_RECORD
  5
65CE
330
653F
100
AcDbSymbolTableRecord
100
AcDbBlockTableRecord
  2
*U16
340
0
  0
BLOCK_RECORD
  5
65D0
330
653F
100
AcDbSymbolTableRecord
100
AcDbBlockTableRecord
  2
*U17
340
0
  0
BLOCK_RECORD
  5
65D2
330
653F
100
AcDbSymbolTableRecord
100
AcDbBlockTableRecord
  2
*U18
340
0
  0
BLOCK_RECORD
  5
65D4
330
653F
100
AcDbSymbolTableRecord
100
AcDbBlockTableRecord
  2
*U19
340
0
  0
BLOCK_RECORD
  5
65D6
330
653F
100
AcDbSymbolTableRecord
100
AcDbBlockTableRecord
  2
*U20
340
0
  0
BLOCK_RECORD
  5
65D8
330
653F
100
AcDbSymbolTableRecord
100
AcDbBlockTableRecord
  2
*U21
340
0
  0
BLOCK_RECORD
  5
65DA
330
653F
100
AcDbSymbolTableRecord
100
AcDbBlockTableRecord
  2
*U22
340
0
  0
BLOCK_RECORD
  5
65DC
330
653F
100
AcDbSymbolTableRecord
100
AcDbBlockTableRecord
  2
*U23
340
0
  0
BLOCK_RECORD
  5
65DE
330
653F
100
AcDbSymbolTableRecord
100
AcDbBlockTableRecord
  2
*U24
340
0
  0
BLOCK_RECORD
  5
65E0
330
653F
100
AcDbSymbolTableRecord
100
AcDbBlockTableRecord
  2
*U25
340
0
  0
BLOCK_RECORD
  5
65E2
330
653F
100
AcDbSymbolTableRecord
100
AcDbBlockTableRecord
  2
*U26
340
0
  0
BLOCK_RECORD
  5
65E4
330
653F
100
AcDbSymbolTableRecord
100
AcDbBlockTableRecord
  2
*U27
340
0
  0
BLOCK_RECORD
  5
65E6
330
653F
100
AcDbSymbolTableRecord
100
AcDbBlockTableRecord
  2
*U28
340
0
  0
BLOCK_RECORD
  5
65E8
330
653F
100
AcDbSymbolTableRecord
100
AcDbBlockTableRecord
  2
*U29
340
0
  0
BLOCK_RECORD
  5
65EA
330
653F
100
AcDbSymbolTableRecord
100
AcDbBlockTableRecord
  2
*U30
340
0
  0
BLOCK_RECORD
  5
65EC
330
653F
100
AcDbSymbolTableRecord
100
AcDbBlockTableRecord
  2
*U31
340
0
  0
BLOCK_RECORD
  5
65EE
330
653F
100
AcDbSymbolTableRecord
100
AcDbBlockTableRecord
  2
*U32
340
0
  0
BLOCK_RECORD
  5
65F0
330
653F
100
AcDbSymbolTableRecord
100
AcDbBlockTableRecord
  2
*U33
340
0
  0
BLOCK_RECORD
  5
65F2
330
653F
100
AcDbSymbolTableRecord
100
AcDbBlockTableRecord
  2
*U34
340
0
  0
BLOCK_RECORD
  5
65F4
330
653F
100
AcDbSymbolTableRecord
100
AcDbBlockTableRecord
  2
*U35
340
0
  0
BLOCK_RECORD
  5
65F6
330
653F
100
AcDbSymbolTableRecord
100
AcDbBlockTableRecord
  2
*U36
340
0
  0
BLOCK_RECORD
  5
65F8
330
653F
100
AcDbSymbolTableRecord
100
AcDbBlockTableRecord
  2
*U37
340
0
  0
BLOCK_RECORD
  5
65FA
330
653F
100
AcDbSymbolTableRecord
100
AcDbBlockTableRecord
  2
*U38
340
0
  0
BLOCK_RECORD
  5
65FC
330
653F
100
AcDbSymbolTableRecord
100
AcDbBlockTableRecord
  2
*U39
340
0
  0
BLOCK_RECORD
  5
65FE
330
653F
100
AcDbSymbolTableRecord
100
AcDbBlockTableRecord
  2
*U40
340
0
  0
BLOCK_RECORD
  5
6600
330
653F
100
AcDbSymbolTableRecord
100
AcDbBlockTableRecord
  2
*U41
340
0
  0
BLOCK_RECORD
  5
6602
330
653F
100
AcDbSymbolTableRecord
100
AcDbBlockTableRecord
  2
*U42
340
0
  0
BLOCK_RECORD
  5
6604
330
653F
100
AcDbSymbolTableRecord
100
AcDbBlockTableRecord
  2
*U43
340
0
  0
BLOCK_RECORD
  5
6606
330
653F
100
AcDbSymbolTableRecord
100
AcDbBlockTableRecord
  2
*U44
340
0
  0
BLOCK_RECORD
  5
6608
330
653F
100
AcDbSymbolTableRecord
100
AcDbBlockTableRecord
  2
*U45
340
0
  0
BLOCK_RECORD
  5
660A
330
653F
100
AcDbSymbolTableRecord
100
AcDbBlockTableRecord
  2
*D46
340
0
  0
BLOCK_RECORD
  5
660C
330
653F
100
AcDbSymbolTableRecord
100
AcDbBlockTableRecord
  2
*U47
340
0
102
{BLKREFS
331
310D
102
}
  0
BLOCK_RECORD
  5
660E
330
653F
100
AcDbSymbolTableRecord
100
AcDbBlockTableRecord
  2
*D48
340
0
  0
BLOCK_RECORD
  5
6610
330
653F
100
AcDbSymbolTableRecord
100
AcDbBlockTableRecord
  2
*U49
340
0
102
{BLKREFS
331
311A
102
}
  0
BLOCK_RECORD
  5
6612
330
653F
100
AcDbSymbolTableRecord
100
AcDbBlockTableRecord
  2
*D50
340
0
  0
BLOCK_RECORD
  5
6614
330
653F
100
AcDbSymbolTableRecord
100
AcDbBlockTableRecord
  2
*U51
340
0
102
{BLKREFS
331
3127
102
}
  0
BLOCK_RECORD
  5
6616
330
653F
100
AcDbSymbolTableRecord
100
AcDbBlockTableRecord
  2
*D52
340
0
  0
BLOCK_RECORD
  5
6618
330
653F
100
AcDbSymbolTableRecord
100
AcDbBlockTableRecord
  2
*U53
340
0
102
{BLKREFS
331
3134
102
}
  0
BLOCK_RECORD
  5
661A
330
653F
100
AcDbSymbolTableRecord
100
AcDbBlockTableRecord
  2
*D54
340
0
  0
BLOCK_RECORD
  5
661C
330
653F
100
AcDbSymbolTableRecord
100
AcDbBlockTableRecord
  2
*U55
340
0
102
{BLKREFS
331
3141
102
}
  0
BLOCK_RECORD
  5
661E
330
653F
100
AcDbSymbolTableRecord
100
AcDbBlockTableRecord
  2
*D56
340
0
  0
BLOCK_RECORD
  5
6620
330
653F
100
AcDbSymbolTableRecord
100
AcDbBlockTableRecord
  2
*U57
340
0
102
{BLKREFS
331
314A
102
}
  0
BLOCK_RECORD
  5
6622
330
653F
100
AcDbSymbolTableRecord
100
AcDbBlockTableRecord
  2
*D58
340
0
  0
BLOCK_RECORD
  5
6624
330
653F
100
AcDbSymbolTableRecord
100
AcDbBlockTableRecord
  2
*U59
340
0
102
{BLKREFS
331
3155
102
}
  0
BLOCK_RECORD
  5
6626
330
653F
100
AcDbSymbolTableRecord
100
AcDbBlockTableRecord
  2
*D60
340
0
  0
BLOCK_RECORD
  5
6628
330
653F
100
AcDbSymbolTableRecord
100
AcDbBlockTableRecord
  2
*U61
340
0
102
{BLKREFS
331
3165
102
}
  0
BLOCK_RECORD
  5
662A
330
653F
100
AcDbSymbolTableRecord
100
AcDbBlockTableRecord
  2
*D62
340
0
  0
BLOCK_RECORD
  5
662C
330
653F
100
AcDbSymbolTableRecord
100
AcDbBlockTableRecord
  2
*U63
340
0
102
{BLKREFS
331
3172
102
}
  0
BLOCK_RECORD
  5
662E
330
653F
100
AcDbSymbolTableRecord
100
AcDbBlockTableRecord
  2
*D64
340
0
  0
BLOCK_RECORD
  5
6630
330
653F
100
AcDbSymbolTableRecord
100
AcDbBlockTableRecord
  2
*U65
340
0
102
{BLKREFS
331
317F
102
}
  0
BLOCK_RECORD
  5
6632
330
653F
100
AcDbSymbolTableRecord
100
AcDbBlockTableRecord
  2
*D66
340
0
  0
BLOCK_RECORD
  5
6634
330
653F
100
AcDbSymbolTableRecord
100
AcDbBlockTableRecord
  2
*U67
340
0
102
{BLKREFS
331
318C
102
}
  0
BLOCK_RECORD
  5
6636
330
653F
100
AcDbSymbolTableRecord
100
AcDbBlockTableRecord
  2
*U68
340
0
  0
BLOCK_RECORD
  5
6638
330
653F
100
AcDbSymbolTableRecord
100
AcDbBlockTableRecord
  2
*U69
340
0
  0
BLOCK_RECORD
  5
663A
330
653F
100
AcDbSymbolTableRecord
100
AcDbBlockTableRecord
  2
*U70
340
0
  0
BLOCK_RECORD
  5
663C
330
653F
100
AcDbSymbolTableRecord
100
AcDbBlockTableRecord
  2
*U71
340
0
  0
BLOCK_RECORD
  5
663E
330
653F
100
AcDbSymbolTableRecord
100
AcDbBlockTableRecord
  2
*U72
340
0
  0
BLOCK_RECORD
  5
6640
330
653F
100
AcDbSymbolTableRecord
100
AcDbBlockTableRecord
  2
*U73
340
0
  0
BLOCK_RECORD
  5
6642
330
653F
100
AcDbSymbolTableRecord
100
AcDbBlockTableRecord
  2
*U74
340
0
  0
BLOCK_RECORD
  5
6644
330
653F
100
AcDbSymbolTableRecord
100
AcDbBlockTableRecord
  2
*U75
340
0
  0
BLOCK_RECORD
  5
6646
330
653F
100
AcDbSymbolTableRecord
100
AcDbBlockTableRecord
  2
*U76
340
0
  0
BLOCK_RECORD
  5
6648
330
653F
100
AcDbSymbolTableRecord
100
AcDbBlockTableRecord
  2
*U77
340
0
  0
BLOCK_RECORD
  5
664A
330
653F
100
AcDbSymbolTableRecord
100
AcDbBlockTableRecord
  2
*U78
340
0
  0
BLOCK_RECORD
  5
664C
330
653F
100
AcDbSymbolTableRecord
100
AcDbBlockTableRecord
  2
*D79
340
0
  0
BLOCK_RECORD
  5
664E
330
653F
100
AcDbSymbolTableRecord
100
AcDbBlockTableRecord
  2
*U80
340
0
102
{BLKREFS
331
3708
102
}
  0
BLOCK_RECORD
  5
6650
330
653F
100
AcDbSymbolTableRecord
100
AcDbBlockTableRecord
  2
*D81
340
0
  0
BLOCK_RECORD
  5
6652
330
653F
100
AcDbSymbolTableRecord
100
AcDbBlockTableRecord
  2
*U82
340
0
102
{BLKREFS
331
3715
102
}
  0
BLOCK_RECORD
  5
6654
330
653F
100
AcDbSymbolTableRecord
100
AcDbBlockTableRecord
  2
*D83
340
0
  0
BLOCK_RECORD
  5
6656
330
653F
100
AcDbSymbolTableRecord
100
AcDbBlockTableRecord
  2
*U84
340
0
102
{BLKREFS
331
3722
102
}
  0
BLOCK_RECORD
  5
6658
330
653F
100
AcDbSymbolTableRecord
100
AcDbBlockTableRecord
  2
*D85
340
0
  0
BLOCK_RECORD
  5
665A
330
653F
100
AcDbSymbolTableRecord
100
AcDbBlockTableRecord
  2
*U86
340
0
102
{BLKREFS
331
372F
102
}
  0
BLOCK_RECORD
  5
665C
330
653F
100
AcDbSymbolTableRecord
100
AcDbBlockTableRecord
  2
*D87
340
0
  0
BLOCK_RECORD
  5
665E
330
653F
100
AcDbSymbolTableRecord
100
AcDbBlockTableRecord
  2
*U88
340
0
102
{BLKREFS
331
373C
102
}
  0
BLOCK_RECORD
  5
6660
330
653F
100
AcDbSymbolTableRecord
100
AcDbBlockTableRecord
  2
*D89
340
0
  0
BLOCK_RECORD
  5
6662
330
653F
100
AcDbSymbolTableRecord
100
AcDbBlockTableRecord
  2
*U90
340
0
102
{BLKREFS
331
3745
102
}
  0
BLOCK_RECORD
  5
6664
330
653F
100
AcDbSymbolTableRecord
100
AcDbBlockTableRecord
  2
*D91
340
0
  0
BLOCK_RECORD
  5
6666
330
653F
100
AcDbSymbolTableRecord
100
AcDbBlockTableRecord
  2
*U92
340
0
102
{BLKREFS
331
3750
102
}
  0
BLOCK_RECORD
  5
6668
330
653F
100
AcDbSymbolTableRecord
100
AcDbBlockTableRecord
  2
*D93
340
0
  0
BLOCK_RECORD
  5
666A
330
653F
100
AcDbSymbolTableRecord
100
AcDbBlockTableRecord
  2
*U94
340
0
102
{BLKREFS
331
3760
102
}
  0
BLOCK_RECORD
  5
666C
330
653F
100
AcDbSymbolTableRecord
100
AcDbBlockTableRecord
  2
*D95
340
0
  0
BLOCK_RECORD
  5
666E
330
653F
100
AcDbSymbolTableRecord
100
AcDbBlockTableRecord
  2
*U96
340
0
102
{BLKREFS
331
376D
102
}
  0
BLOCK_RECORD
  5
6670
330
653F
100
AcDbSymbolTableRecord
100
AcDbBlockTableRecord
  2
*D97
340
0
  0
BLOCK_RECORD
  5
6672
330
653F
100
AcDbSymbolTableRecord
100
AcDbBlockTableRecord
  2
*U98
340
0
102
{BLKREFS
331
377A
102
}
  0
BLOCK_RECORD
  5
6674
330
653F
100
AcDbSymbolTableRecord
100
AcDbBlockTableRecord
  2
*D99
340
0
  0
BLOCK_RECORD
  5
6676
330
653F
100
AcDbSymbolTableRecord
100
AcDbBlockTableRecord
  2
*U100
340
0
102
{BLKREFS
331
3787
102
}
  0
BLOCK_RECORD
  5
6678
330
653F
100
AcDbSymbolTableRecord
100
AcDbBlockTableRecord
  2
*U101
340
0
  0
BLOCK_RECORD
  5
667A
330
653F
100
AcDbSymbolTableRecord
100
AcDbBlockTableRecord
  2
*U102
340
0
  0
BLOCK_RECORD
  5
667C
330
653F
100
AcDbSymbolTableRecord
100
AcDbBlockTableRecord
  2
*U103
340
0
  0
BLOCK_RECORD
  5
667E
330
653F
100
AcDbSymbolTableRecord
100
AcDbBlockTableRecord
  2
*U104
340
0
  0
BLOCK_RECORD
  5
6680
330
653F
100
AcDbSymbolTableRecord
100
AcDbBlockTableRecord
  2
*U105
340
0
  0
BLOCK_RECORD
  5
6682
330
653F
100
AcDbSymbolTableRecord
100
AcDbBlockTableRecord
  2
*U106
340
0
  0
BLOCK_RECORD
  5
6684
330
653F
100
AcDbSymbolTableRecord
100
AcDbBlockTableRecord
  2
*U107
340
0
  0
BLOCK_RECORD
  5
6686
330
653F
100
AcDbSymbolTableRecord
100
AcDbBlockTableRecord
  2
*U108
340
0
  0
BLOCK_RECORD
  5
6688
330
653F
100
AcDbSymbolTableRecord
100
AcDbBlockTableRecord
  2
*U109
340
0
  0
BLOCK_RECORD
  5
668A
330
653F
100
AcDbSymbolTableRecord
100
AcDbBlockTableRecord
  2
*U110
340
0
  0
BLOCK_RECORD
  5
668C
330
653F
100
AcDbSymbolTableRecord
100
AcDbBlockTableRecord
  2
*U111
340
0
  0
BLOCK_RECORD
  5
668E
330
653F
100
AcDbSymbolTableRecord
100
AcDbBlockTableRecord
  2
*U112
340
0
  0
BLOCK_RECORD
  5
6690
330
653F
100
AcDbSymbolTableRecord
100
AcDbBlockTableRecord
  2
*U113
340
0
  0
BLOCK_RECORD
  5
6692
330
653F
100
AcDbSymbolTableRecord
100
AcDbBlockTableRecord
  2
*U114
340
0
  0
BLOCK_RECORD
  5
6694
330
653F
100
AcDbSymbolTableRecord
100
AcDbBlockTableRecord
  2
*U115
340
0
  0
BLOCK_RECORD
  5
6696
330
653F
100
AcDbSymbolTableRecord
100
AcDbBlockTableRecord
  2
*U116
340
0
  0
BLOCK_RECORD
  5
6698
330
653F
100
AcDbSymbolTableRecord
100
AcDbBlockTableRecord
  2
*U117
340
0
  0
BLOCK_RECORD
  5
669A
330
653F
100
AcDbSymbolTableRecord
100
AcDbBlockTableRecord
  2
*U118
340
0
  0
BLOCK_RECORD
  5
669C
330
653F
100
AcDbSymbolTableRecord
100
AcDbBlockTableRecord
  2
*U119
340
0
  0
BLOCK_RECORD
  5
669E
330
653F
100
AcDbSymbolTableRecord
100
AcDbBlockTableRecord
  2
*U120
340
0
  0
BLOCK_RECORD
  5
66A0
330
653F
100
AcDbSymbolTableRecord
100
AcDbBlockTableRecord
  2
*U121
340
0
  0
BLOCK_RECORD
  5
66A2
330
653F
100
AcDbSymbolTableRecord
100
AcDbBlockTableRecord
  2
*U122
340
0
  0
BLOCK_RECORD
  5
66A4
330
653F
100
AcDbSymbolTableRecord
100
AcDbBlockTableRecord
  2
*U123
340
0
  0
BLOCK_RECORD
  5
66A6
330
653F
100
AcDbSymbolTableRecord
100
AcDbBlockTableRecord
  2
*U124
340
0
  0
BLOCK_RECORD
  5
66A8
330
653F
100
AcDbSymbolTableRecord
100
AcDbBlockTableRecord
  2
*U125
340
0
  0
BLOCK_RECORD
  5
66AA
330
653F
100
AcDbSymbolTableRecord
100
AcDbBlockTableRecord
  2
*U126
340
0
  0
BLOCK_RECORD
  5
66AC
330
653F
100
AcDbSymbolTableRecord
100
AcDbBlockTableRecord
  2
*U127
340
0
  0
BLOCK_RECORD
  5
66AE
330
653F
100
AcDbSymbolTableRecord
100
AcDbBlockTableRecord
  2
*U128
340
0
  0
BLOCK_RECORD
  5
66B0
330
653F
100
AcDbSymbolTableRecord
100
AcDbBlockTableRecord
  2
*U129
340
0
  0
BLOCK_RECORD
  5
66B2
330
653F
100
AcDbSymbolTableRecord
100
AcDbBlockTableRecord
  2
*U130
340
0
  0
BLOCK_RECORD
  5
66B4
330
653F
100
AcDbSymbolTableRecord
100
AcDbBlockTableRecord
  2
*U131
340
0
  0
BLOCK_RECORD
  5
66B6
330
653F
100
AcDbSymbolTableRecord
100
AcDbBlockTableRecord
  2
*U132
340
0
  0
BLOCK_RECORD
  5
66B8
330
653F
100
AcDbSymbolTableRecord
100
AcDbBlockTableRecord
  2
*U133
340
0
  0
BLOCK_RECORD
  5
66BA
330
653F
100
AcDbSymbolTableRecord
100
AcDbBlockTableRecord
  2
*U134
340
0
  0
BLOCK_RECORD
  5
66BC
330
653F
100
AcDbSymbolTableRecord
100
AcDbBlockTableRecord
  2
*U135
340
0
  0
BLOCK_RECORD
  5
66BE
330
653F
100
AcDbSymbolTableRecord
100
AcDbBlockTableRecord
  2
*U136
340
0
  0
BLOCK_RECORD
  5
66C0
330
653F
100
AcDbSymbolTableRecord
100
AcDbBlockTableRecord
  2
*U137
340
0
  0
BLOCK_RECORD
  5
66C2
330
653F
100
AcDbSymbolTableRecord
100
AcDbBlockTableRecord
  2
*U138
340
0
  0
BLOCK_RECORD
  5
66C4
330
653F
100
AcDbSymbolTableRecord
100
AcDbBlockTableRecord
  2
*U139
340
0
  0
BLOCK_RECORD
  5
66C6
330
653F
100
AcDbSymbolTableRecord
100
AcDbBlockTableRecord
  2
*U140
340
0
  0
BLOCK_RECORD
  5
66C8
330
653F
100
AcDbSymbolTableRecord
100
AcDbBlockTableRecord
  2
*D141
340
0
  0
BLOCK_RECORD
  5
66CA
330
653F
100
AcDbSymbolTableRecord
100
AcDbBlockTableRecord
  2
*U142
340
0
102
{BLKREFS
331
55A3
102
}
  0
BLOCK_RECORD
  5
66CC
330
653F
100
AcDbSymbolTableRecord
100
AcDbBlockTableRecord
  2
*D143
340
0
  0
BLOCK_RECORD
  5
66CE
330
653F
100
AcDbSymbolTableRecord
100
AcDbBlockTableRecord
  2
*U144
340
0
102
{BLKREFS
331
55BD
102
}
  0
BLOCK_RECORD
  5
66D0
330
653F
100
AcDbSymbolTableRecord
100
AcDbBlockTableRecord
  2
*D145
340
0
  0
BLOCK_RECORD
  5
66D2
330
653F
100
AcDbSymbolTableRecord
100
AcDbBlockTableRecord
  2
*U146
340
0
102
{BLKREFS
331
55D7
102
}
  0
BLOCK_RECORD
  5
66D4
330
653F
100
AcDbSymbolTableRecord
100
AcDbBlockTableRecord
  2
*U147
340
0
  0
BLOCK_RECORD
  5
66D6
330
653F
100
AcDbSymbolTableRecord
100
AcDbBlockTableRecord
  2
*D148
340
0
  0
BLOCK_RECORD
  5
66D8
330
653F
100
AcDbSymbolTableRecord
100
AcDbBlockTableRecord
  2
*U149
340
0
102
{BLKREFS
331
560B
102
}
  0
BLOCK_RECORD
  5
66DA
330
653F
100
AcDbSymbolTableRecord
100
AcDbBlockTableRecord
  2
*D150
340
0
  0
BLOCK_RECORD
  5
66DC
330
653F
100
AcDbSymbolTableRecord
100
AcDbBlockTableRecord
  2
*U151
340
0
102
{BLKREFS
331
564E
102
}
  0
BLOCK_RECORD
  5
66DE
330
653F
100
AcDbSymbolTableRecord
100
AcDbBlockTableRecord
  2
*D152
340
0
  0
BLOCK_RECORD
  5
66E0
330
653F
100
AcDbSymbolTableRecord
100
AcDbBlockTableRecord
  2
*U153
340
0
102
{BLKREFS
331
5667
102
}
  0
BLOCK_RECORD
  5
66E2
330
653F
100
AcDbSymbolTableRecord
100
AcDbBlockTableRecord
  2
*U154
340
0
  0
BLOCK_RECORD
  5
66E4
330
653F
100
AcDbSymbolTableRecord
100
AcDbBlockTableRecord
  2
*U155
340
0
102
{BLKREFS
331
695E
102
}
  0
BLOCK_RECORD
  5
66E6
330
653F
100
AcDbSymbolTableRecord
100
AcDbBlockTableRecord
  2
*U156
340
0
102
{BLKREFS
331
695F
102
}
  0
BLOCK_RECORD
  5
66E8
330
653F
100
AcDbSymbolTableRecord
100
AcDbBlockTableRecord
  2
*U157
340
0
102
{BLKREFS
331
6960
102
}
  0
BLOCK_RECORD
  5
66EA
330
653F
100
AcDbSymbolTableRecord
100
AcDbBlockTableRecord
  2
*U158
340
0
102
{BLKREFS
331
696A
102
}
  0
BLOCK_RECORD
  5
66EC
330
653F
100
AcDbSymbolTableRecord
100
AcDbBlockTableRecord
  2
*U159
340
0
  0
BLOCK_RECORD
  5
66EE
330
653F
100
AcDbSymbolTableRecord
100
AcDbBlockTableRecord
  2
*D160
340
0
  0
BLOCK_RECORD
  5
66F0
330
653F
100
AcDbSymbolTableRecord
100
AcDbBlockTableRecord
  2
*U161
340
0
102
{BLKREFS
331
6450
102
}
  0
BLOCK_RECORD
  5
66F1
330
653F
100
AcDbSymbolTableRecord
100
AcDbBlockTableRecord
  2
*D162
340
0
  0
BLOCK_RECORD
  5
66F3
330
653F
100
AcDbSymbolTableRecord
100
AcDbBlockTableRecord
  2
*U163
340
0
102
{BLKREFS
331
640B
102
}
  0
BLOCK_RECORD
  5
66F4
330
653F
100
AcDbSymbolTableRecord
100
AcDbBlockTableRecord
  2
*D164
340
0
  0
BLOCK_RECORD
  5
66F6
330
653F
100
AcDbSymbolTableRecord
100
AcDbBlockTableRecord
  2
*U165
340
0
102
{BLKREFS
331
6418
102
}
  0
BLOCK_RECORD
  5
66F7
330
653F
100
AcDbSymbolTableRecord
100
AcDbBlockTableRecord
  2
*D166
340
0
  0
BLOCK_RECORD
  5
66F9
330
653F
100
AcDbSymbolTableRecord
100
AcDbBlockTableRecord
  2
*U167
340
0
102
{BLKREFS
331
6439
102
}
  0
BLOCK_RECORD
  5
66FA
330
653F
100
AcDbSymbolTableRecord
100
AcDbBlockTableRecord
  2
*D168
340
0
  0
BLOCK_RECORD
  5
66FC
330
653F
100
AcDbSymbolTableRecord
100
AcDbBlockTableRecord
  2
*U169
340
0
102
{BLKREFS
331
6446
102
}
  0
BLOCK_RECORD
  5
66FD
330
653F
100
AcDbSymbolTableRecord
100
AcDbBlockTableRecord
  2
*D170
340
0
  0
BLOCK_RECORD
  5
66FF
330
653F
100
AcDbSymbolTableRecord
100
AcDbBlockTableRecord
  2
*U171
340
0
102
{BLKREFS
331
645D
102
}
  0
BLOCK_RECORD
  5
6700
330
653F
100
AcDbSymbolTableRecord
100
AcDbBlockTableRecord
  2
*D172
340
0
  0
BLOCK_RECORD
  5
6702
330
653F
100
AcDbSymbolTableRecord
100
AcDbBlockTableRecord
  2
*U173
340
0
102
{BLKREFS
331
646A
102
}
  0
BLOCK_RECORD
  5
6703
330
653F
100
AcDbSymbolTableRecord
100
AcDbBlockTableRecord
  2
*D174
340
0
  0
BLOCK_RECORD
  5
6705
330
653F
100
AcDbSymbolTableRecord
100
AcDbBlockTableRecord
  2
*U175
340
0
102
{BLKREFS
331
6477
102
}
  0
BLOCK_RECORD
  5
670F
330
653F
100
AcDbSymbolTableRecord
100
AcDbBlockTableRecord
  2
*D176
340
0
  0
BLOCK_RECORD
  5
671C
330
653F
100
AcDbSymbolTableRecord
100
AcDbBlockTableRecord
  2
*D177
340
0
  0
BLOCK_RECORD
  5
6729
330
653F
100
AcDbSymbolTableRecord
100
AcDbBlockTableRecord
  2
*D178
340
0
  0
BLOCK_RECORD
  5
6736
330
653F
100
AcDbSymbolTableRecord
100
AcDbBlockTableRecord
  2
*D179
340
0
  0
BLOCK_RECORD
  5
6743
330
653F
100
AcDbSymbolTableRecord
100
AcDbBlockTableRecord
  2
*D180
340
0
  0
BLOCK_RECORD
  5
6750
330
653F
100
AcDbSymbolTableRecord
100
AcDbBlockTableRecord
  2
*D181
340
0
  0
BLOCK_RECORD
  5
675D
330
653F
100
AcDbSymbolTableRecord
100
AcDbBlockTableRecord
  2
*D182
340
0
  0
BLOCK_RECORD
  5
676A
330
653F
100
AcDbSymbolTableRecord
100
AcDbBlockTableRecord
  2
*D183
340
0
  0
BLOCK_RECORD
  5
677D
330
653F
100
AcDbSymbolTableRecord
100
AcDbBlockTableRecord
  2
*D184
340
0
  0
BLOCK_RECORD
  5
679F
330
653F
100
AcDbSymbolTableRecord
100
AcDbBlockTableRecord
  2
*D185
340
0
  0
BLOCK_RECORD
  5
6818
330
653F
100
AcDbSymbolTableRecord
100
AcDbBlockTableRecord
  2
*D186
340
0
  0
BLOCK_RECORD
  5
6830
330
653F
100
AcDbSymbolTableRecord
100
AcDbBlockTableRecord
  2
*D187
340
0
  0
BLOCK_RECORD
  5
683E
330
653F
100
AcDbSymbolTableRecord
100
AcDbBlockTableRecord
  2
*D188
340
0
  0
BLOCK_RECORD
  5
684C
330
653F
100
AcDbSymbolTableRecord
100
AcDbBlockTableRecord
  2
*D189
340
0
  0
BLOCK_RECORD
  5
699A
330
653F
100
AcDbSymbolTableRecord
100
AcDbBlockTableRecord
  2
*D190
340
0
  0
BLOCK_RECORD
  5
69A7
330
653F
100
AcDbSymbolTableRecord
100
AcDbBlockTableRecord
  2
*D191
340
0
  0
BLOCK_RECORD
  5
69B4
330
653F
100
AcDbSymbolTableRecord
100
AcDbBlockTableRecord
  2
*D192
340
0
  0
BLOCK_RECORD
  5
69C1
330
653F
100
AcDbSymbolTableRecord
100
AcDbBlockTableRecord
  2
*D193
340
0
  0
BLOCK_RECORD
  5
69CE
330
653F
100
AcDbSymbolTableRecord
100
AcDbBlockTableRecord
  2
*D194
340
0
  0
BLOCK_RECORD
  5
69DB
330
653F
100
AcDbSymbolTableRecord
100
AcDbBlockTableRecord
  2
*D195
340
0
  0
BLOCK_RECORD
  5
6AAB
330
653F
100
AcDbSymbolTableRecord
100
AcDbBlockTableRecord
  2
*D196
340
0
  0
BLOCK_RECORD
  5
6AC3
330
653F
100
AcDbSymbolTableRecord
100
AcDbBlockTableRecord
  2
*D198
340
0
  0
BLOCK_RECORD
  5
6ADA
330
653F
100
AcDbSymbolTableRecord
100
AcDbBlockTableRecord
  2
*D199
340
0
  0
BLOCK_RECORD
  5
6AEF
330
653F
100
AcDbSymbolTableRecord
100
AcDbBlockTableRecord
  2
*D201
340
0
  0
BLOCK_RECORD
  5
6B09
330
653F
100
AcDbSymbolTableRecord
100
AcDbBlockTableRecord
  2
*D202
340
0
  0
BLOCK_RECORD
  5
6B17
330
653F
100
AcDbSymbolTableRecord
100
AcDbBlockTableRecord
  2
*D203
340
0
  0
BLOCK_RECORD
  5
6B25
330
653F
100
AcDbSymbolTableRecord
100
AcDbBlockTableRecord
  2
*D204
340
0
  0
BLOCK_RECORD
  5
6B33
330
653F
100
AcDbSymbolTableRecord
100
AcDbBlockTableRecord
  2
*D205
340
0
  0
BLOCK_RECORD
  5
6B4B
330
653F
100
AcDbSymbolTableRecord
100
AcDbBlockTableRecord
  2
*D206
340
0
  0
BLOCK_RECORD
  5
6B59
330
653F
100
AcDbSymbolTableRecord
100
AcDbBlockTableRecord
  2
*D207
340
0
  0
BLOCK_RECORD
  5
6B69
330
653F
100
AcDbSymbolTableRecord
100
AcDbBlockTableRecord
  2
*D208
340
0
  0
BLOCK_RECORD
  5
6B77
330
653F
100
AcDbSymbolTableRecord
100
AcDbBlockTableRecord
  2
*D209
340
0
  0
ENDTAB
  0
ENDSEC
  0
SECTION
  2
BLOCKS
  0
BLOCK
  5
6575
330
6574
100
AcDbEntity
  8
0
100
AcDbBlockBegin
  2
*Model_Space
 70
     0
 10
0.0
 20
0.0
 30
0.0
  3
*Model_Space
  1

  0
ENDBLK
  5
6576
330
6574
100
AcDbEntity
  8
0
100
AcDbBlockEnd
  0
BLOCK
  5
6571
330
6570
100
AcDbEntity
 67
     1
  8
0
100
AcDbBlockBegin
  2
*Paper_Space
 70
     0
 10
0.0
 20
0.0
 30
0.0
  3
*Paper_Space
  1

  0
ENDBLK
  5
6572
330
6570
100
AcDbEntity
 67
     1
  8
0
100
AcDbBlockEnd
  0
BLOCK
  5
65AF
330
65AE
100
AcDbEntity
  8
0
100
AcDbBlockBegin
  2
$MODEL_SPACE
 70
     0
 10
0.0
 20
0.0
 30
0.0
  3
$MODEL_SPACE
  1

  0
ENDBLK
  5
6031
330
65AE
100
AcDbEntity
  8
0
100
AcDbBlockEnd
  0
BLOCK
  5
65B1
330
65B0
100
AcDbEntity
  8
0
100
AcDbBlockBegin
  2
$PAPER_SPACE
 70
     0
 10
0.0
 20
0.0
 30
0.0
  3
$PAPER_SPACE
  1

  0
ENDBLK
  5
602D
330
65B0
100
AcDbEntity
  8
0
100
AcDbBlockEnd
  0
BLOCK
  5
65B3
330
65B2
100
AcDbEntity
  8
0
100
AcDbBlockBegin
  2
*U2
 70
     1
 10
0.0
 20
0.0
 30
0.0
  3
*U2
  1

  0
TEXT
  5
5931
330
65B2
100
AcDbEntity
  8
标注
100
AcDbText
 10
278.1085753334799
 20
188.7031155711957
 30
0.0
 40
0.65
  1
9"
 50
90.0
100
AcDbText
  0
ENDBLK
  5
5933
330
65B2
100
AcDbEntity
  8
0
100
AcDbBlockEnd
  0
BLOCK
  5
65B5
330
65B4
100
AcDbEntity
  8
0
100
AcDbBlockBegin
  2
*U3
 70
     1
 10
0.0
 20
0.0
 30
0.0
  3
*U3
  1

  0
TEXT
  5
5935
330
65B4
100
AcDbEntity
  8
标注
100
AcDbText
 10
259.9666445499046
 20
152.3166958017756
 30
0.0
 40
0.65
  1
28"
100
AcDbText
  0
ENDBLK
  5
5937
330
65B4
100
AcDbEntity
  8
0
100
AcDbBlockEnd
  0
BLOCK
  5
65B7
330
65B6
100
AcDbEntity
  8
0
100
AcDbBlockBegin
  2
*U4
 70
     1
 10
0.0
 20
0.0
 30
0.0
  3
*U4
  1

  0
TEXT
  5
5939
330
65B6
100
AcDbEntity
  8
标注
100
AcDbText
 10
259.9971891693277
 20
150.4854921654649
 30
0.0
 40
0.65
  1
30"
100
AcDbText
  0
ENDBLK
  5
593B
330
65B6
100
AcDbEntity
  8
0
100
AcDbBlockEnd
  0
BLOCK
  5
65B9
330
65B8
100
AcDbEntity
  8
0
100
AcDbBlockBegin
  2
*U5
 70
     1
 10
0.0
 20
0.0
 30
0.0
  3
*U5
  1

  0
TEXT
  5
593D
330
65B8
100
AcDbEntity
  8
标注
100
AcDbText
 10
277.9686557463612
 20
163.1443957570238
 30
0.0
 40
0.65
  1
16"
 50
90.0
100
AcDbText
  0
ENDBLK
  5
593F
330
65B8
100
AcDbEntity
  8
0
100
AcDbBlockEnd
  0
BLOCK
  5
65BB
330
65BA
100
AcDbEntity
  8
0
100
AcDbBlockBegin
  2
*U6
 70
     1
 10
0.0
 20
0.0
 30
0.0
  3
*U6
  1

  0
TEXT
  5
5941
330
65BA
100
AcDbEntity
  8
标注
100
AcDbText
 10
279.7068546045301
 20
163.1443957570219
 30
0.0
 40
0.65
  1
18"
 50
90.0
100
AcDbText
  0
ENDBLK
  5
5943
330
65BA
100
AcDbEntity
  8
0
100
AcDbBlockEnd
  0
BLOCK
  5
65BD
330
65BC
100
AcDbEntity
  8
0
100
AcDbBlockBegin
  2
*U7
 70
     1
 10
0.0
 20
0.0
 30
0.0
  3
*U7
  1

  0
TEXT
  5
5945
330
65BC
100
AcDbEntity
  8
标注
100
AcDbText
 10
260.8413425030415
 20
112.6320075107335
 30
0.0
 40
0.65
  1
28 1/8"
100
AcDbText
  0
ENDBLK
  5
5947
330
65BC
100
AcDbEntity
  8
0
100
AcDbBlockEnd
  0
BLOCK
  5
65BF
330
65BE
100
AcDbEntity
  8
0
100
AcDbBlockBegin
  2
*U8
 70
     1
 10
0.0
 20
0.0
 30
0.0
  3
*U8
  1

  0
TEXT
  5
5949
330
65BE
100
AcDbEntity
  8
标注
100
AcDbText
 10
279.3317614640683
 20
121.9863500978319
 30
0.0
 40
0.65
  1
16 1/8"
 50
90.0
100
AcDbText
  0
ENDBLK
  5
594B
330
65BE
100
AcDbEntity
  8
0
100
AcDbBlockEnd
  0
BLOCK
  5
65C1
330
65C0
100
AcDbEntity
  8
0
100
AcDbBlockBegin
  2
*U9
 70
     1
 10
0.0
 20
0.0
 30
0.0
  3
*U9
  1

  0
TEXT
  5
5954
330
65C0
100
AcDbEntity
  8
标注
100
AcDbText
 10
343.5257971993137
 20
149.5929431051932
 30
0.0
 40
0.65
  1
30"
100
AcDbText
  0
ENDBLK
  5
5956
330
65C0
100
AcDbEntity
  8
0
100
AcDbBlockEnd
  0
BLOCK
  5
65C3
330
65C2
100
AcDbEntity
  8
0
100
AcDbBlockBegin
  2
*U10
 70
     1
 10
0.0
 20
0.0
 30
0.0
  3
*U10
  1

  0
TEXT
  5
5958
330
65C2
100
AcDbEntity
  8
标注
100
AcDbText
 10
343.471630532647
 20
148.3944405888207
 30
0.0
 40
0.65
  1
32"
100
AcDbText
  0
ENDBLK
  5
595A
330
65C2
100
AcDbEntity
  8
0
100
AcDbBlockEnd
  0
BLOCK
  5
65C5
330
65C4
100
AcDbEntity
  8
0
100
AcDbBlockBegin
  2
*U11
 70
     1
 10
0.0
 20
0.0
 30
0.0
  3
*U11
  1

  0
TEXT
  5
595C
330
65C4
100
AcDbEntity
  8
标注
100
AcDbText
 10
362.1603791990839
 20
160.6553142089138
 30
0.0
 40
0.65
  1
16"
 50
90.0
100
AcDbText
  0
ENDBLK
  5
595E
330
65C4
100
AcDbEntity
  8
0
100
AcDbBlockEnd
  0
BLOCK
  5
65C7
330
65C6
100
AcDbEntity
  8
0
100
AcDbBlockBegin
  2
*U12
 70
     1
 10
0.0
 20
0.0
 30
0.0
  3
*U12
  1

  0
TEXT
  5
5960
330
65C6
100
AcDbEntity
  8
标注
100
AcDbText
 10
363.5593100510013
 20
160.6553142089065
 30
0.0
 40
0.65
  1
18"
 50
90.0
100
AcDbText
  0
ENDBLK
  5
5962
330
65C6
100
AcDbEntity
  8
0
100
AcDbBlockEnd
  0
BLOCK
  5
65C9
330
65C8
100
AcDbEntity
  8
0
100
AcDbBlockBegin
  2
*U13
 70
     1
 10
0.0
 20
0.0
 30
0.0
  3
*U13
  1

  0
TEXT
  5
5950
330
65C8
100
AcDbEntity
  8
标注
100
AcDbText
 10
362.2731822072543
 20
184.3666646119905
 30
0.0
 40
0.65
  1
10"
 50
90.0
100
AcDbText
  0
ENDBLK
  5
5952
330
65C8
100
AcDbEntity
  8
0
100
AcDbBlockEnd
  0
BLOCK
  5
65CB
330
65CA
100
AcDbEntity
  8
0
100
AcDbBlockBegin
  2
*U14
 70
     1
 10
0.0
 20
0.0
 30
0.0
  3
*U14
  1

  0
TEXT
  5
5964
330
65CA
100
AcDbEntity
  8
标注
100
AcDbText
 10
361.4619589239384
 20
120.7834546501419
 30
0.0
 40
0.65
  1
16 1/8"
 50
90.0
100
AcDbText
  0
ENDBLK
  5
5966
330
65CA
100
AcDbEntity
  8
0
100
AcDbBlockEnd
  0
BLOCK
  5
65CD
330
65CC
100
AcDbEntity
  8
0
100
AcDbBlockBegin
  2
*U15
 70
     1
 10
0.0
 20
0.0
 30
0.0
  3
*U15
  1

  0
TEXT
  5
5968
330
65CC
100
AcDbEntity
  8
标注
100
AcDbText
 10
342.3725157742389
 20
111.9065438515469
 30
0.0
 40
0.65
  1
30 1/8"
100
AcDbText
  0
ENDBLK
  5
596A
330
65CC
100
AcDbEntity
  8
0
100
AcDbBlockEnd
  0
BLOCK
  5
65CF
330
65CE
100
AcDbEntity
  8
0
100
AcDbBlockBegin
  2
*U16
 70
     1
 10
0.0
 20
0.0
 30
0.0
  3
*U16
  1

  0
TEXT
  5
5970
330
65CE
100
AcDbEntity
  8
标注
100
AcDbText
 10
392.6571932235167
 20
113.0324838479009
 30
0.0
 40
0.65
  1
30 1/8"
100
AcDbText
  0
ENDBLK
  5
5972
330
65CE
100
AcDbEntity
  8
0
100
AcDbBlockEnd
  0
BLOCK
  5
65D1
330
65D0
100
AcDbEntity
  8
0
100
AcDbBlockBegin
  2
*U17
 70
     1
 10
0.0
 20
0.0
 30
0.0
  3
*U17
  1

  0
TEXT
  5
5974
330
65D0
100
AcDbEntity
  8
标注
100
AcDbText
 10
412.3782794901662
 20
121.7766809349519
 30
0.0
 40
0.65
  1
16 1/8"
 50
90.0
100
AcDbText
  0
ENDBLK
  5
5976
330
65D0
100
AcDbEntity
  8
0
100
AcDbBlockEnd
  0
BLOCK
  5
65D3
330
65D2
100
AcDbEntity
  8
0
100
AcDbBlockBegin
  2
*U18
 70
     1
 10
0.0
 20
0.0
 30
0.0
  3
*U18
  1

  0
TEXT
  5
5980
330
65D2
100
AcDbEntity
  8
标注
100
AcDbText
 10
393.8488598901834
 20
147.4036207908977
 30
0.0
 40
0.65
  1
30"
100
AcDbText
  0
ENDBLK
  5
5982
330
65D2
100
AcDbEntity
  8
0
100
AcDbBlockEnd
  0
BLOCK
  5
65D5
330
65D4
100
AcDbEntity
  8
0
100
AcDbBlockBegin
  2
*U19
 70
     1
 10
0.0
 20
0.0
 30
0.0
  3
*U19
  1

  0
TEXT
  5
5978
330
65D4
100
AcDbEntity
  8
标注
100
AcDbText
 10
393.7946932235168
 20
145.9982744764491
 30
0.0
 40
0.65
  1
32"
100
AcDbText
  0
ENDBLK
  5
597A
330
65D4
100
AcDbEntity
  8
0
100
AcDbBlockEnd
  0
BLOCK
  5
65D7
330
65D6
100
AcDbEntity
  8
0
100
AcDbBlockBegin
  2
*U20
 70
     1
 10
0.0
 20
0.0
 30
0.0
  3
*U20
  1

  0
TEXT
  5
5984
330
65D6
100
AcDbEntity
  8
标注
100
AcDbText
 10
412.558431369425
 20
157.9729541185304
 30
0.0
 40
0.65
  1
16"
 50
90.0
100
AcDbText
  0
ENDBLK
  5
5986
330
65D6
100
AcDbEntity
  8
0
100
AcDbBlockEnd
  0
BLOCK
  5
65D9
330
65D8
100
AcDbEntity
  8
0
100
AcDbBlockBegin
  2
*U21
 70
     1
 10
0.0
 20
0.0
 30
0.0
  3
*U21
  1

  0
TEXT
  5
597C
330
65D8
100
AcDbEntity
  8
标注
100
AcDbText
 10
413.8709643087928
 20
158.0123281559575
 30
0.0
 40
0.65
  1
18"
 50
90.0
100
AcDbText
  0
ENDBLK
  5
597E
330
65D8
100
AcDbEntity
  8
0
100
AcDbBlockEnd
  0
BLOCK
  5
65DB
330
65DA
100
AcDbEntity
  8
0
100
AcDbBlockBegin
  2
*U22
 70
     1
 10
0.0
 20
0.0
 30
0.0
  3
*U22
  1

  0
TEXT
  5
5995
330
65DA
100
AcDbEntity
  8
标注
100
AcDbText
 10
470.683651914372
 20
182.3656984979685
 30
0.0
 40
0.65
  1
9"
 50
90.0
100
AcDbText
  0
ENDBLK
  5
5997
330
65DA
100
AcDbEntity
  8
0
100
AcDbBlockEnd
  0
BLOCK
  5
65DD
330
65DC
100
AcDbEntity
  8
0
100
AcDbBlockBegin
  2
*U23
 70
     1
 10
0.0
 20
0.0
 30
0.0
  3
*U23
  1

  0
TEXT
  5
599D
330
65DC
100
AcDbEntity
  8
标注
100
AcDbText
 10
452.5450603381504
 20
147.7356797977843
 30
0.0
 40
0.65
  1
28"
100
AcDbText
  0
ENDBLK
  5
599F
330
65DC
100
AcDbEntity
  8
0
100
AcDbBlockEnd
  0
BLOCK
  5
65DF
330
65DE
100
AcDbEntity
  8
0
100
AcDbBlockBegin
  2
*U24
 70
     1
 10
0.0
 20
0.0
 30
0.0
  3
*U24
  1

  0
TEXT
  5
5991
330
65DE
100
AcDbEntity
  8
标注
100
AcDbText
 10
452.599227004817
 20
146.2409540882777
 30
0.0
 40
0.65
  1
30"
100
AcDbText
  0
ENDBLK
  5
5993
330
65DE
100
AcDbEntity
  8
0
100
AcDbBlockEnd
  0
BLOCK
  5
65E1
330
65E0
100
AcDbEntity
  8
0
100
AcDbBlockBegin
  2
*U25
 70
     1
 10
0.0
 20
0.0
 30
0.0
  3
*U25
  1

  0
TEXT
  5
5999
330
65E0
100
AcDbEntity
  8
标注
100
AcDbText
 10
470.279023868088
 20
158.0123281559567
 30
0.0
 40
0.65
  1
16"
 50
90.0
100
AcDbText
  0
ENDBLK
  5
599B
330
65E0
100
AcDbEntity
  8
0
100
AcDbBlockEnd
  0
BLOCK
  5
65E3
330
65E2
100
AcDbEntity
  8
0
100
AcDbBlockBegin
  2
*U26
 70
     1
 10
0.0
 20
0.0
 30
0.0
  3
*U26
  1

  0
TEXT
  5
59A1
330
65E2
100
AcDbEntity
  8
标注
100
AcDbText
 10
471.5840639646422
 20
158.0123281559558
 30
0.0
 40
0.65
  1
18"
 50
90.0
100
AcDbText
  0
ENDBLK
  5
59A3
330
65E2
100
AcDbEntity
  8
0
100
AcDbBlockEnd
  0
BLOCK
  5
65E5
330
65E4
100
AcDbEntity
  8
0
100
AcDbBlockBegin
  2
*U27
 70
     1
 10
0.0
 20
0.0
 30
0.0
  3
*U27
  1

  0
TEXT
  5
59A5
330
65E4
100
AcDbEntity
  8
标注
100
AcDbText
 10
450.6867680113258
 20
114.5719542962978
 30
0.0
 40
0.65
  1
28 1/8"
100
AcDbText
  0
ENDBLK
  5
59A7
330
65E4
100
AcDbEntity
  8
0
100
AcDbBlockEnd
  0
BLOCK
  5
65E7
330
65E6
100
AcDbEntity
  8
0
100
AcDbBlockBegin
  2
*U28
 70
     1
 10
0.0
 20
0.0
 30
0.0
  3
*U28
  1

  0
TEXT
  5
59A9
330
65E6
100
AcDbEntity
  8
标注
100
AcDbText
 10
469.5204776513411
 20
123.610272587919
 30
0.0
 40
0.65
  1
16 1/8"
 50
90.0
100
AcDbText
  0
ENDBLK
  5
59AB
330
65E6
100
AcDbEntity
  8
0
100
AcDbBlockEnd
  0
BLOCK
  5
65E9
330
65E8
100
AcDbEntity
  8
0
100
AcDbBlockBegin
  2
*U29
 70
     1
 10
0.0
 20
0.0
 30
0.0
  3
*U29
  1

  0
TEXT
  5
59AD
330
65E8
100
AcDbEntity
  8
标注
100
AcDbText
 10
506.3467954586299
 20
147.4755637375283
 30
0.0
 40
0.65
  1
28"
100
AcDbText
  0
ENDBLK
  5
59AF
330
65E8
100
AcDbEntity
  8
0
100
AcDbBlockEnd
  0
BLOCK
  5
65EB
330
65EA
100
AcDbEntity
  8
0
100
AcDbBlockBegin
  2
*U30
 70
     1
 10
0.0
 20
0.0
 30
0.0
  3
*U30
  1

  0
TEXT
  5
59B1
330
65EA
100
AcDbEntity
  8
标注
100
AcDbText
 10
506.4009621252966
 20
146.0601863907887
 30
0.0
 40
0.65
  1
30"
100
AcDbText
  0
ENDBLK
  5
59B3
330
65EA
100
AcDbEntity
  8
0
100
AcDbBlockEnd
  0
BLOCK
  5
65ED
330
65EC
100
AcDbEntity
  8
0
100
AcDbBlockBegin
  2
*U31
 70
     1
 10
0.0
 20
0.0
 30
0.0
  3
*U31
  1

  0
TEXT
  5
59B5
330
65EC
100
AcDbEntity
  8
标注
100
AcDbText
 10
523.755309905472
 20
157.6065715678812
 30
0.0
 40
0.65
  1
16"
 50
90.0
100
AcDbText
  0
ENDBLK
  5
59B7
330
65EC
100
AcDbEntity
  8
0
100
AcDbBlockEnd
  0
BLOCK
  5
65EF
330
65EE
100
AcDbEntity
  8
0
100
AcDbBlockBegin
  2
*U32
 70
     1
 10
0.0
 20
0.0
 30
0.0
  3
*U32
  1

  0
TEXT
  5
59B9
330
65EE
100
AcDbEntity
  8
标注
100
AcDbText
 10
525.1269019570696
 20
157.6065715678886
 30
0.0
 40
0.65
  1
18"
 50
90.0
100
AcDbText
  0
ENDBLK
  5
59BB
330
65EE
100
AcDbEntity
  8
0
100
AcDbBlockEnd
  0
BLOCK
  5
65F1
330
65F0
100
AcDbEntity
  8
0
100
AcDbBlockBegin
  2
*U33
 70
     1
 10
0.0
 20
0.0
 30
0.0
  3
*U33
  1

  0
TEXT
  5
59BD
330
65F0
100
AcDbEntity
  8
标注
100
AcDbText
 10
494.4644166712815
 20
151.4317303465564
 30
0.0
 40
0.65
  1
R5/8"
 50
56.91702406618373
100
AcDbText
  0
ENDBLK
  5
59BF
330
65F0
100
AcDbEntity
  8
0
100
AcDbBlockEnd
  0
BLOCK
  5
65F3
330
65F2
100
AcDbEntity
  8
0
100
AcDbBlockBegin
  2
*U34
 70
     1
 10
0.0
 20
0.0
 30
0.0
  3
*U34
  1

  0
TEXT
  5
59C1
330
65F2
100
AcDbEntity
  8
标注
100
AcDbText
 10
524.0635490930466
 20
181.2638940746402
 30
0.0
 40
0.65
  1
10"
 50
90.0
100
AcDbText
  0
ENDBLK
  5
59C3
330
65F2
100
AcDbEntity
  8
0
100
AcDbBlockEnd
  0
BLOCK
  5
65F5
330
65F4
100
AcDbEntity
  8
0
100
AcDbBlockBegin
  2
*U35
 70
     1
 10
0.0
 20
0.0
 30
0.0
  3
*U35
  1

  0
TEXT
  5
59C5
330
65F4
100
AcDbEntity
  8
标注
100
AcDbText
 10
506.2250930698854
 20
113.9654844352191
 30
0.0
 40
0.65
  1
28 1/8"
100
AcDbText
  0
ENDBLK
  5
59C7
330
65F4
100
AcDbEntity
  8
0
100
AcDbBlockEnd
  0
BLOCK
  5
65F7
330
65F6
100
AcDbEntity
  8
0
100
AcDbBlockBegin
  2
*U36
 70
     1
 10
0.0
 20
0.0
 30
0.0
  3
*U36
  1

  0
TEXT
  5
59C9
330
65F6
100
AcDbEntity
  8
标注
100
AcDbText
 10
525.0023723750969
 20
122.5531191220616
 30
0.0
 40
0.65
  1
16 1/8"
 50
90.0
100
AcDbText
  0
ENDBLK
  5
59CB
330
65F6
100
AcDbEntity
  8
0
100
AcDbBlockEnd
  0
BLOCK
  5
65F9
330
65F8
100
AcDbEntity
  8
0
100
AcDbBlockBegin
  2
*U37
 70
     1
 10
0.0
 20
0.0
 30
0.0
  3
*U37
  1

  0
TEXT
  5
59CD
330
65F8
100
AcDbEntity
  8
标注
100
AcDbText
 10
495.6107723333094
 20
117.2707496618087
 30
0.0
 40
0.65
  1
R5/8"
 50
40.02765156041965
100
AcDbText
  0
ENDBLK
  5
59CF
330
65F8
100
AcDbEntity
  8
0
100
AcDbBlockEnd
  0
BLOCK
  5
65FB
330
65FA
100
AcDbEntity
  8
0
100
AcDbBlockBegin
  2
*U38
 70
     1
 10
0.0
 20
0.0
 30
0.0
  3
*U38
  1

  0
TEXT
  5
59D5
330
65FA
100
AcDbEntity
  8
标注
100
AcDbText
 10
579.7773524925302
 20
182.0123307294651
 30
0.0
 40
0.65
  1
9"
 50
90.0
100
AcDbText
  0
ENDBLK
  5
59D7
330
65FA
100
AcDbEntity
  8
0
100
AcDbBlockEnd
  0
BLOCK
  5
65FD
330
65FC
100
AcDbEntity
  8
0
100
AcDbBlockBegin
  2
*U39
 70
     1
 10
0.0
 20
0.0
 30
0.0
  3
*U39
  1

  0
TEXT
  5
59DD
330
65FC
100
AcDbEntity
  8
标注
100
AcDbText
 10
562.0784423820126
 20
147.9762391918296
 30
0.0
 40
0.65
  1
28"
100
AcDbText
  0
ENDBLK
  5
59DF
330
65FC
100
AcDbEntity
  8
0
100
AcDbBlockEnd
  0
BLOCK
  5
65FF
330
65FE
100
AcDbEntity
  8
0
100
AcDbBlockBegin
  2
*U40
 70
     1
 10
0.0
 20
0.0
 30
0.0
  3
*U40
  1

  0
TEXT
  5
59D9
330
65FE
100
AcDbEntity
  8
标注
100
AcDbText
 10
562.1326090486721
 20
146.6489402997249
 30
0.0
 40
0.65
  1
30"
100
AcDbText
  0
ENDBLK
  5
59DB
330
65FE
100
AcDbEntity
  8
0
100
AcDbBlockEnd
  0
BLOCK
  5
6601
330
6600
100
AcDbEntity
  8
0
100
AcDbBlockBegin
  2
*U41
 70
     1
 10
0.0
 20
0.0
 30
0.0
  3
*U41
  1

  0
TEXT
  5
59E1
330
6600
100
AcDbEntity
  8
标注
100
AcDbText
 10
579.7397459938341
 20
158.4541180993159
 30
0.0
 40
0.65
  1
16"
 50
90.0
100
AcDbText
  0
ENDBLK
  5
59E3
330
6600
100
AcDbEntity
  8
0
100
AcDbBlockEnd
  0
BLOCK
  5
6603
330
6602
100
AcDbEntity
  8
0
100
AcDbBlockBegin
  2
*U42
 70
     1
 10
0.0
 20
0.0
 30
0.0
  3
*U42
  1

  0
TEXT
  5
59E5
330
6602
100
AcDbEntity
  8
标注
100
AcDbText
 10
581.0056101861476
 20
158.4541180993231
 30
0.0
 40
0.65
  1
18"
 50
90.0
100
AcDbText
  0
ENDBLK
  5
59E7
330
6602
100
AcDbEntity
  8
0
100
AcDbBlockEnd
  0
BLOCK
  5
6605
330
6604
100
AcDbEntity
  8
0
100
AcDbBlockBegin
  2
*U43
 70
     1
 10
0.0
 20
0.0
 30
0.0
  3
*U43
  1

  0
TEXT
  5
59E9
330
6604
100
AcDbEntity
  8
标注
100
AcDbText
 10
560.1113887479908
 20
113.8248044454734
 30
0.0
 40
0.65
  1
28 1/8"
100
AcDbText
  0
ENDBLK
  5
59EB
330
6604
100
AcDbEntity
  8
0
100
AcDbBlockEnd
  0
BLOCK
  5
6607
330
6606
100
AcDbEntity
  8
0
100
AcDbBlockBegin
  2
*U44
 70
     1
 10
0.0
 20
0.0
 30
0.0
  3
*U44
  1

  0
TEXT
  5
59ED
330
6606
100
AcDbEntity
  8
标注
100
AcDbText
 10
578.8444416558036
 20
122.819594198725
 30
0.0
 40
0.65
  1
16 1/8"
 50
90.0
100
AcDbText
  0
ENDBLK
  5
59EF
330
6606
100
AcDbEntity
  8
0
100
AcDbBlockEnd
  0
BLOCK
  5
6609
330
6608
100
AcDbEntity
  8
0
100
AcDbBlockBegin
  2
*U45
 70
     1
 10
0.0
 20
0.0
 30
0.0
  3
*U45
  1

  0
TEXT
  5
59F1
330
6608
100
AcDbEntity
  8
标注
100
AcDbText
 10
550.2881488200072
 20
152.1325137393661
 30
0.0
 40
0.65
  1
R5/8"
 50
46.62431974514094
100
AcDbText
  0
ENDBLK
  5
59F3
330
6608
100
AcDbEntity
  8
0
100
AcDbBlockEnd
  0
BLOCK
  5
660B
330
660A
100
AcDbEntity
  8
0
100
AcDbBlockBegin
  2
*D46
 70
     1
 10
0.0
 20
0.0
 30
0.0
  3
*D46
  1

  0
LINE
  5
3106
330
660A
100
AcDbEntity
  8
标注线
100
AcDbLine
 10
140950.0488374628
 20
-70089.99641384531
 30
0.0
 11
140995.1121705672
 21
-70089.99641384531
 31
0.0
  0
LINE
  5
3107
330
660A
100
AcDbEntity
  8
标注线
100
AcDbLine
 10
140924.6113374628
 20
-70115.39641384527
 30
0.0
 11
140995.1121705672
 21
-70115.39641384527
 31
0.0
  0
LINE
  5
3108
330
660A
100
AcDbEntity
  8
标注线
100
AcDbLine
 10
140987.1121705672
 20
-70131.39641384527
 30
0.0
 11
140987.1121705672
 21
-70147.39641384527
 31
0.0
  0
LINE
  5
3109
330
660A
100
AcDbEntity
  8
标注线
100
AcDbLine
 10
140987.1121705672
 20
-70073.9964138453
 30
0.0
 11
140987.1121705672
 21
-70044.55196940088
 31
0.0
  0
LINE
  5
310A
330
660A
100
AcDbEntity
  8
标注线
100
AcDbLine
 10
140987.1121705672
 20
-70115.39641384527
 30
0.0
 11
140987.1121705672
 21
-70089.99641384531
 31
0.0
  0
SOLID
  5
310B
330
660A
100
AcDbEntity
  8
标注线
100
AcDbTrace
 10
140984.4455039005
 20
-70131.39641384527
 30
0.0
 11
140989.7788372338
 21
-70131.39641384527
 31
0.0
 12
140987.1121705672
 22
-70115.39641384527
 32
0.0
 13
140987.1121705672
 23
-70115.39641384527
 33
0.0
  0
SOLID
  5
310C
330
660A
100
AcDbEntity
  8
标注线
100
AcDbTrace
 10
140984.4455039005
 20
-70073.9964138453
 30
0.0
 11
140989.7788372338
 21
-70073.9964138453
 31
0.0
 12
140987.1121705672
 22
-70089.99641384531
 32
0.0
 13
140987.1121705672
 23
-70089.99641384531
 33
0.0
  0
INSERT
  5
310D
330
660A
100
AcDbEntity
  8
标注
100
AcDbBlockReference
  2
*U47
 10
0.0
 20
0.0
 30
0.0
  0
POINT
  5
310E
330
660A
100
AcDbEntity
  8
DEFPOINTS
 62
     0
100
AcDbPoint
 10
140930.0488374628
 20
-70089.99641384531
 30
0.0
  0
POINT
  5
310F
330
660A
100
AcDbEntity
  8
DEFPOINTS
 62
     0
100
AcDbPoint
 10
140904.6113374628
 20
-70115.39641384527
 30
0.0
  0
POINT
  5
3110
330
660A
100
AcDbEntity
  8
DEFPOINTS
 62
     0
100
AcDbPoint
 10
140987.1121705672
 20
-70115.39641384527
 30
0.0
  0
ENDBLK
  5
3111
330
660A
100
AcDbEntity
  8
0
100
AcDbBlockEnd
  0
BLOCK
  5
660D
330
660C
100
AcDbEntity
  8
0
100
AcDbBlockBegin
  2
*U47
 70
     1
 10
0.0
 20
0.0
 30
0.0
  3
*U47
  1

  0
TEXT
  5
59F5
330
660C
100
AcDbEntity
  8
标注线
100
AcDbText
 10
140993.7788372339
 20
-70040.1075249564
 30
0.0
 40
16.0
  1
25,4
 50
90.0
100
AcDbText
  0
ENDBLK
  5
59F7
330
660C
100
AcDbEntity
  8
0
100
AcDbBlockEnd
  0
BLOCK
  5
660F
330
660E
100
AcDbEntity
  8
0
100
AcDbBlockBegin
  2
*D48
 70
     1
 10
0.0
 20
0.0
 30
0.0
  3
*D48
  1

  0
LINE
  5
3114
330
660E
100
AcDbEntity
  8
标注线
100
AcDbLine
 10
140510.9113374628
 20
-70541.79641384534
 30
0.0
 11
140510.9113374628
 21
-70609.63046974383
 31
0.0
  0
LINE
  5
3115
330
660E
100
AcDbEntity
  8
标注线
100
AcDbLine
 10
140142.6113374628
 20
-70541.79641384534
 30
0.0
 11
140142.6113374628
 21
-70609.63046974383
 31
0.0
  0
LINE
  5
3116
330
660E
100
AcDbEntity
  8
标注线
100
AcDbLine
 10
140494.9113374628
 20
-70601.63046974383
 30
0.0
 11
140361.8280041295
 21
-70601.63046974383
 31
0.0
  0
LINE
  5
3117
330
660E
100
AcDbEntity
  8
标注线
100
AcDbLine
 10
140158.6113374628
 20
-70601.63046974383
 30
0.0
 11
140291.6946707961
 21
-70601.63046974383
 31
0.0
  0
SOLID
  5
3118
330
660E
100
AcDbEntity
  8
标注线
100
AcDbTrace
 10
140494.9113374628
 20
-70598.96380307716
 30
0.0
 11
140494.9113374628
 21
-70604.2971364105
 31
0.0
 12
140510.9113374628
 22
-70601.63046974383
 32
0.0
 13
140510.9113374628
 23
-70601.63046974383
 33
0.0
  0
SOLID
  5
3119
330
660E
100
AcDbEntity
  8
标注线
100
AcDbTrace
 10
140158.6113374628
 20
-70598.96380307716
 30
0.0
 11
140158.6113374628
 21
-70604.2971364105
 31
0.0
 12
140142.6113374628
 22
-70601.63046974383
 32
0.0
 13
140142.6113374628
 23
-70601.63046974383
 33
0.0
  0
INSERT
  5
311A
330
660E
100
AcDbEntity
  8
标注
100
AcDbBlockReference
  2
*U49
 10
0.0
 20
0.0
 30
0.0
  0
POINT
  5
311B
330
660E
100
AcDbEntity
  8
DEFPOINTS
 62
     0
100
AcDbPoint
 10
140510.9113374628
 20
-70521.79641384534
 30
0.0
  0
POINT
  5
311C
330
660E
100
AcDbEntity
  8
DEFPOINTS
 62
     0
100
AcDbPoint
 10
140142.6113374628
 20
-70521.79641384534
 30
0.0
  0
POINT
  5
311D
330
660E
100
AcDbEntity
  8
DEFPOINTS
 62
     0
100
AcDbPoint
 10
140142.6113374628
 20
-70601.63046974383
 30
0.0
  0
ENDBLK
  5
311E
330
660E
100
AcDbEntity
  8
0
100
AcDbBlockEnd
  0
BLOCK
  5
6611
330
6610
100
AcDbEntity
  8
0
100
AcDbBlockBegin
  2
*U49
 70
     1
 10
0.0
 20
0.0
 30
0.0
  3
*U49
  1

  0
TEXT
  5
59F9
330
6610
100
AcDbEntity
  8
标注线
100
AcDbText
 10
140293.4280041294
 20
-70608.2971364105
 30
0.0
 40
16.0
  1
368,3
100
AcDbText
  0
ENDBLK
  5
59FB
330
6610
100
AcDbEntity
  8
0
100
AcDbBlockEnd
  0
BLOCK
  5
6613
330
6612
100
AcDbEntity
  8
0
100
AcDbBlockBegin
  2
*D50
 70
     1
 10
0.0
 20
0.0
 30
0.0
  3
*D50
  1

  0
LINE
  5
3121
330
6612
100
AcDbEntity
  8
标注线
100
AcDbLine
 10
140117.2113374628
 20
-70567.19641384537
 30
0.0
 11
140117.2113374628
 21
-70666.8135954847
 31
0.0
  0
LINE
  5
3122
330
6612
100
AcDbEntity
  8
标注线
100
AcDbLine
 10
140930.0113374628
 20
-70567.19641384535
 30
0.0
 11
140930.0113374628
 21
-70666.8135954847
 31
0.0
  0
LINE
  5
3123
330
6612
100
AcDbEntity
  8
标注线
100
AcDbLine
 10
140133.2113374628
 20
-70658.81359548472
 30
0.0
 11
140488.3224485739
 21
-70658.81359548472
 31
0.0
  0
LINE
  5
3124
330
6612
100
AcDbEntity
  8
标注线
100
AcDbLine
 10
140914.0113374628
 20
-70658.81359548472
 30
0.0
 11
140558.9002263517
 21
-70658.81359548472
 31
0.0
  0
SOLID
  5
3125
330
6612
100
AcDbEntity
  8
标注线
100
AcDbTrace
 10
140133.2113374628
 20
-70656.14692881804
 30
0.0
 11
140133.2113374628
 21
-70661.48026215138
 31
0.0
 12
140117.2113374628
 22
-70658.81359548472
 32
0.0
 13
140117.2113374628
 23
-70658.81359548472
 33
0.0
  0
SOLID
  5
3126
330
6612
100
AcDbEntity
  8
标注线
100
AcDbTrace
 10
140914.0113374628
 20
-70656.14692881804
 30
0.0
 11
140914.0113374628
 21
-70661.48026215138
 31
0.0
 12
140930.0113374628
 22
-70658.81359548472
 32
0.0
 13
140930.0113374628
 23
-70658.81359548472
 33
0.0
  0
INSERT
  5
3127
330
6612
100
AcDbEntity
  8
标注
100
AcDbBlockReference
  2
*U51
 10
0.0
 20
0.0
 30
0.0
  0
POINT
  5
3128
330
6612
100
AcDbEntity
  8
DEFPOINTS
 62
     0
100
AcDbPoint
 10
140117.2113374628
 20
-70547.19641384537
 30
0.0
  0
POINT
  5
3129
330
6612
100
AcDbEntity
  8
DEFPOINTS
 62
     0
100
AcDbPoint
 10
140930.0113374628
 20
-70547.19641384535
 30
0.0
  0
POINT
  5
312A
330
6612
100
AcDbEntity
  8
DEFPOINTS
 62
     0
100
AcDbPoint
 10
140930.0113374628
 20
-70658.81359548472
 30
0.0
  0
ENDBLK
  5
312B
330
6612
100
AcDbEntity
  8
0
100
AcDbBlockEnd
  0
BLOCK
  5
6615
330
6614
100
AcDbEntity
  8
0
100
AcDbBlockBegin
  2
*U51
 70
     1
 10
0.0
 20
0.0
 30
0.0
  3
*U51
  1

  0
TEXT
  5
59FD
330
6614
100
AcDbEntity
  8
标注线
100
AcDbText
 10
140492.9446707962
 20
-70665.48026215138
 30
0.0
 40
16.0
  1
812,8
100
AcDbText
  0
ENDBLK
  5
59FF
330
6614
100
AcDbEntity
  8
0
100
AcDbBlockEnd
  0
BLOCK
  5
6617
330
6616
100
AcDbEntity
  8
0
100
AcDbBlockBegin
  2
*D52
 70
     1
 10
0.0
 20
0.0
 30
0.0
  3
*D52
  1

  0
LINE
  5
312E
330
6616
100
AcDbEntity
  8
标注线
100
AcDbLine
 10
140536.3113374628
 20
-70541.79641384534
 30
0.0
 11
140536.3113374628
 21
-70609.63046974383
 31
0.0
  0
LINE
  5
312F
330
6616
100
AcDbEntity
  8
标注线
100
AcDbLine
 10
140904.6113374628
 20
-70541.79641384537
 30
0.0
 11
140904.6113374628
 21
-70609.63046974383
 31
0.0
  0
LINE
  5
3130
330
6616
100
AcDbEntity
  8
标注线
100
AcDbLine
 10
140552.3113374628
 20
-70601.63046974383
 30
0.0
 11
140685.3946707961
 21
-70601.63046974383
 31
0.0
  0
LINE
  5
3131
330
6616
100
AcDbEntity
  8
标注线
100
AcDbLine
 10
140888.6113374628
 20
-70601.63046974383
 30
0.0
 11
140755.5280041295
 21
-70601.63046974383
 31
0.0
  0
SOLID
  5
3132
330
6616
100
AcDbEntity
  8
标注线
100
AcDbTrace
 10
140552.3113374628
 20
-70598.96380307716
 30
0.0
 11
140552.3113374628
 21
-70604.2971364105
 31
0.0
 12
140536.3113374628
 22
-70601.63046974383
 32
0.0
 13
140536.3113374628
 23
-70601.63046974383
 33
0.0
  0
SOLID
  5
3133
330
6616
100
AcDbEntity
  8
标注线
100
AcDbTrace
 10
140888.6113374628
 20
-70598.96380307716
 30
0.0
 11
140888.6113374628
 21
-70604.2971364105
 31
0.0
 12
140904.6113374628
 22
-70601.63046974383
 32
0.0
 13
140904.6113374628
 23
-70601.63046974383
 33
0.0
  0
INSERT
  5
3134
330
6616
100
AcDbEntity
  8
标注
100
AcDbBlockReference
  2
*U53
 10
0.0
 20
0.0
 30
0.0
  0
POINT
  5
3135
330
6616
100
AcDbEntity
  8
DEFPOINTS
 62
     0
100
AcDbPoint
 10
140536.3113374628
 20
-70521.79641384534
 30
0.0
  0
POINT
  5
3136
330
6616
100
AcDbEntity
  8
DEFPOINTS
 62
     0
100
AcDbPoint
 10
140904.6113374628
 20
-70521.79641384537
 30
0.0
  0
POINT
  5
3137
330
6616
100
AcDbEntity
  8
DEFPOINTS
 62
     0
100
AcDbPoint
 10
140904.6113374628
 20
-70601.63046974383
 30
0.0
  0
ENDBLK
  5
3138
330
6616
100
AcDbEntity
  8
0
100
AcDbBlockEnd
  0
BLOCK
  5
6619
330
6618
100
AcDbEntity
  8
0
100
AcDbBlockBegin
  2
*U53
 70
     1
 10
0.0
 20
0.0
 30
0.0
  3
*U53
  1

  0
TEXT
  5
5A01
330
6618
100
AcDbEntity
  8
标注线
100
AcDbText
 10
140687.1280041294
 20
-70608.2971364105
 30
0.0
 40
16.0
  1
368,3
100
AcDbText
  0
ENDBLK
  5
5A03
330
6618
100
AcDbEntity
  8
0
100
AcDbBlockEnd
  0
BLOCK
  5
661B
330
661A
100
AcDbEntity
  8
0
100
AcDbBlockBegin
  2
*D54
 70
     1
 10
0.0
 20
0.0
 30
0.0
  3
*D54
  1

  0
LINE
  5
313B
330
661A
100
AcDbEntity
  8
标注线
100
AcDbLine
 10
140910.0113374628
 20
-69672.3030824044
 30
0.0
 11
140790.1178851889
 21
-69672.3030824044
 31
0.0
  0
LINE
  5
313C
330
661A
100
AcDbEntity
  8
标注线
100
AcDbLine
 10
140793.1510664378
 20
-69926.31554786902
 30
0.0
 11
140790.1178851889
 21
-69926.31554786902
 31
0.0
  0
LINE
  5
313D
330
661A
100
AcDbEntity
  8
标注线
100
AcDbLine
 10
140798.1178851889
 20
-69688.30308240441
 30
0.0
 11
140798.1178851889
 21
-69800.62042624777
 31
0.0
  0
LINE
  5
313E
330
661A
100
AcDbEntity
  8
标注线
100
AcDbLine
 10
140798.1178851889
 20
-69910.31554786902
 30
0.0
 11
140798.1178851889
 21
-69848.79820402555
 31
0.0
  0
SOLID
  5
313F
330
661A
100
AcDbEntity
  8
标注线
100
AcDbTrace
 10
140795.4512185223
 20
-69688.30308240441
 30
0.0
 11
140800.7845518556
 21
-69688.30308240441
 31
0.0
 12
140798.1178851889
 22
-69672.3030824044
 32
0.0
 13
140798.1178851889
 23
-69672.3030824044
 33
0.0
  0
SOLID
  5
3140
330
661A
100
AcDbEntity
  8
标注线
100
AcDbTrace
 10
140795.4512185223
 20
-69910.31554786902
 30
0.0
 11
140800.7845518556
 21
-69910.31554786902
 31
0.0
 12
140798.1178851889
 22
-69926.31554786902
 32
0.0
 13
140798.1178851889
 23
-69926.31554786902
 33
0.0
  0
INSERT
  5
3141
330
661A
100
AcDbEntity
  8
标注
100
AcDbBlockReference
  2
*U55
 10
0.0
 20
0.0
 30
0.0
  0
POINT
  5
3142
330
661A
100
AcDbEntity
  8
DEFPOINTS
 62
     0
100
AcDbPoint
 10
140930.0113374628
 20
-69672.3030824044
 30
0.0
  0
POINT
  5
3143
330
661A
100
AcDbEntity
  8
DEFPOINTS
 62
     0
100
AcDbPoint
 10
140813.1510664378
 20
-69926.31554786902
 30
0.0
  0
POINT
  5
3144
330
661A
100
AcDbEntity
  8
DEFPOINTS
 62
     0
100
AcDbPoint
 10
140798.1178851889
 20
-69926.31554786902
 30
0.0
  0
ENDBLK
  5
3145
330
661A
100
AcDbEntity
  8
0
100
AcDbBlockEnd
  0
BLOCK
  5
661D
330
661C
100
AcDbEntity
  8
0
100
AcDbBlockBegin
  2
*U55
 70
     1
 10
0.0
 20
0.0
 30
0.0
  3
*U55
  1

  0
TEXT
  5
5A05
330
661C
100
AcDbEntity
  8
标注线
100
AcDbText
 10
140806.1178851889
 20
-69846.04264846997
 30
0.0
 40
16.0
  1
254
 50
90.0
100
AcDbText
  0
ENDBLK
  5
5A07
330
661C
100
AcDbEntity
  8
0
100
AcDbBlockEnd
  0
BLOCK
  5
661F
330
661E
100
AcDbEntity
  8
0
100
AcDbBlockBegin
  2
*D56
 70
     1
 10
0.0
 20
0.0
 30
0.0
  3
*D56
  1

  0
LINE
  5
3148
330
661E
100
AcDbEntity
  8
标注线
100
AcDbLine
 10
140253.7891588467
 20
-70256.49835147489
 30
0.0
 11
140268.854382819
 21
-70251.10956435138
 31
0.0
  0
LINE
  5
3149
330
661E
100
AcDbEntity
  8
标注线
100
AcDbLine
 10
140384.6682921066
 20
-70209.68326333923
 30
0.0
 11
140399.733516079
 21
-70204.2944762157
 31
0.0
  0
INSERT
  5
314A
330
661E
100
AcDbEntity
  8
标注
100
AcDbBlockReference
  2
*U57
 10
0.0
 20
0.0
 30
0.0
  0
LINE
  5
314B
330
661E
100
AcDbEntity
  8
标注线
100
AcDbLine
 10
140369.6030681343
 20
-70215.07205046275
 30
0.0
 11
140283.9196067914
 21
-70245.72077722782
 31
0.0
  0
SOLID
  5
314C
330
661E
100
AcDbEntity
  8
标注线
100
AcDbTrace
 10
140383.7701609194
 20
-70207.17239267718
 30
0.0
 11
140385.5664232939
 21
-70212.1941340013
 31
0.0
 12
140369.6030681343
 22
-70215.07205046275
 32
0.0
 13
140369.6030681343
 23
-70215.07205046275
 33
0.0
  0
SOLID
  5
314D
330
661E
100
AcDbEntity
  8
标注线
100
AcDbTrace
 10
140267.9562516318
 20
-70248.59869368927
 30
0.0
 11
140269.7525140063
 21
-70253.62043501339
 31
0.0
 12
140283.9196067914
 22
-70245.72077722782
 32
0.0
 13
140283.9196067914
 23
-70245.72077722782
 33
0.0
  0
POINT
  5
314E
330
661E
100
AcDbEntity
  8
DEFPOINTS
 62
     0
100
AcDbPoint
 10
140283.9196067914
 20
-70245.72077722782
 30
0.0
  0
POINT
  5
314F
330
661E
100
AcDbEntity
  8
DEFPOINTS
 62
     0
100
AcDbPoint
 10
140369.6030681343
 20
-70215.07205046275
 30
0.0
  0
ENDBLK
  5
3150
330
661E
100
AcDbEntity
  8
0
100
AcDbBlockEnd
  0
BLOCK
  5
6621
330
6620
100
AcDbEntity
  8
0
100
AcDbBlockBegin
  2
*U57
 70
     1
 10
0.0
 20
0.0
 30
0.0
  3
*U57
  1

  0
TEXT
  5
5A09
330
6620
100
AcDbEntity
  8
标注线
100
AcDbText
 10
140216.4855729792
 20
-70278.33812523378
 30
0.0
 40
16.0
  1
\U+220591
 50
19.68198327342026
100
AcDbText
  0
ENDBLK
  5
5A0B
330
6620
100
AcDbEntity
  8
0
100
AcDbBlockEnd
  0
BLOCK
  5
6623
330
6622
100
AcDbEntity
  8
0
100
AcDbBlockBegin
  2
*D58
 70
     1
 10
0.0
 20
0.0
 30
0.0
  3
*D58
  1

  0
LINE
  5
3153
330
6622
100
AcDbEntity
  8
标注线
100
AcDbLine
 10
140261.5833454221
 20
-70292.45952167551
 30
0.0
 11
140273.1705440071
 21
-70281.42608028347
 31
0.0
  0
LINE
  5
3154
330
6622
100
AcDbEntity
  8
标注线
100
AcDbLine
 10
140380.3521309183
 20
-70179.36674740719
 30
0.0
 11
140391.9393295034
 21
-70168.33330601512
 31
0.0
  0
INSERT
  5
3155
330
6622
100
AcDbEntity
  8
标注
100
AcDbBlockReference
  2
*U59
 10
0.0
 20
0.0
 30
0.0
  0
LINE
  5
3156
330
6622
100
AcDbEntity
  8
标注线
100
AcDbLine
 10
140368.7649323333
 20
-70190.40018879923
 30
0.0
 11
140284.7577425921
 21
-70270.39263889144
 31
0.0
  0
SOLID
  5
3157
330
6622
100
AcDbEntity
  8
标注线
100
AcDbTrace
 10
140378.5132240197
 20
-70177.43554764302
 30
0.0
 11
140382.191037817
 21
-70181.29794717133
 31
0.0
 12
140368.7649323333
 22
-70190.40018879923
 32
0.0
 13
140368.7649323333
 23
-70190.40018879923
 33
0.0
  0
SOLID
  5
3158
330
6622
100
AcDbEntity
  8
标注线
100
AcDbTrace
 10
140271.3316371084
 20
-70279.49488051932
 30
0.0
 11
140275.0094509057
 21
-70283.35728004764
 31
0.0
 12
140284.7577425921
 22
-70270.39263889144
 32
0.0
 13
140284.7577425921
 23
-70270.39263889144
 33
0.0
  0
POINT
  5
3159
330
6622
100
AcDbEntity
  8
DEFPOINTS
 62
     0
100
AcDbPoint
 10
140284.7577425921
 20
-70270.39263889144
 30
0.0
  0
POINT
  5
315A
330
6622
100
AcDbEntity
  8
DEFPOINTS
 62
     0
100
AcDbPoint
 10
140368.7649323333
 20
-70190.40018879923
 30
0.0
  0
ENDBLK
  5
315B
330
6622
100
AcDbEntity
  8
0
100
AcDbBlockEnd
  0
BLOCK
  5
6625
330
6624
100
AcDbEntity
  8
0
100
AcDbBlockBegin
  2
*U59
 70
     1
 10
0.0
 20
0.0
 30
0.0
  3
*U59
  1

  0
TEXT
  5
5A0D
330
6624
100
AcDbEntity
  8
标注线
100
AcDbText
 10
140227.9354812038
 20
-70335.546013562
 30
0.0
 40
16.0
  1
\U+2205116
 50
43.59766945680495
100
AcDbText
  0
ENDBLK
  5
5A0F
330
6624
100
AcDbEntity
  8
0
100
AcDbBlockEnd
  0
BLOCK
  5
6627
330
6626
100
AcDbEntity
  8
0
100
AcDbBlockBegin
  2
*D60
 70
     1
 10
0.0
 20
0.0
 30
0.0
  3
*D60
  1

  0
LINE
  5
315E
330
6626
100
AcDbEntity
  8
标注线
100
AcDbLine
 10
140510.9113374628
 20
-70327.7956356032
 30
0.0
 11
140510.9113374628
 21
-70288.48650776196
 31
0.0
  0
LINE
  5
315F
330
6626
100
AcDbEntity
  8
标注线
100
AcDbLine
 10
140536.3113374628
 20
-70327.7956356032
 30
0.0
 11
140536.3113374628
 21
-70288.48650776196
 31
0.0
  0
LINE
  5
3160
330
6626
100
AcDbEntity
  8
标注线
100
AcDbLine
 10
140494.9113374628
 20
-70296.48650776196
 30
0.0
 11
140478.9113374628
 21
-70296.48650776196
 31
0.0
  0
LINE
  5
3161
330
6626
100
AcDbEntity
  8
标注线
100
AcDbLine
 10
140552.3113374628
 20
-70296.48650776196
 30
0.0
 11
140568.3113374628
 21
-70296.48650776196
 31
0.0
  0
LINE
  5
3162
330
6626
100
AcDbEntity
  8
标注线
100
AcDbLine
 10
140510.9113374628
 20
-70296.48650776196
 30
0.0
 11
140536.3113374628
 21
-70296.48650776196
 31
0.0
  0
SOLID
  5
3163
330
6626
100
AcDbEntity
  8
标注线
100
AcDbTrace
 10
140494.9113374628
 20
-70293.81984109529
 30
0.0
 11
140494.9113374628
 21
-70299.15317442862
 31
0.0
 12
140510.9113374628
 22
-70296.48650776196
 32
0.0
 13
140510.9113374628
 23
-70296.48650776196
 33
0.0
  0
SOLID
  5
3164
330
6626
100
AcDbEntity
  8
标注线
100
AcDbTrace
 10
140552.3113374628
 20
-70293.81984109529
 30
0.0
 11
140552.3113374628
 21
-70299.15317442862
 31
0.0
 12
140536.3113374628
 22
-70296.48650776196
 32
0.0
 13
140536.3113374628
 23
-70296.48650776196
 33
0.0
  0
INSERT
  5
3165
330
6626
100
AcDbEntity
  8
标注
100
AcDbBlockReference
  2
*U61
 10
0.0
 20
0.0
 30
0.0
  0
POINT
  5
3166
330
6626
100
AcDbEntity
  8
DEFPOINTS
 62
     0
100
AcDbPoint
 10
140510.9113374628
 20
-70347.79563560321
 30
0.0
  0
POINT
  5
3167
330
6626
100
AcDbEntity
  8
DEFPOINTS
 62
     0
100
AcDbPoint
 10
140536.3113374628
 20
-70347.79563560321
 30
0.0
  0
POINT
  5
3168
330
6626
100
AcDbEntity
  8
DEFPOINTS
 62
     0
100
AcDbPoint
 10
140536.3113374628
 20
-70296.48650776196
 30
0.0
  0
ENDBLK
  5
3169
330
6626
100
AcDbEntity
  8
0
100
AcDbBlockEnd
  0
BLOCK
  5
6629
330
6628
100
AcDbEntity
  8
0
100
AcDbBlockBegin
  2
*U61
 70
     1
 10
0.0
 20
0.0
 30
0.0
  3
*U61
  1

  0
TEXT
  5
5A11
330
6628
100
AcDbEntity
  8
标注线
100
AcDbText
 10
140572.7557819073
 20
-70303.15317442862
 30
0.0
 40
16.0
  1
25,4
100
AcDbText
  0
ENDBLK
  5
5A13
330
6628
100
AcDbEntity
  8
0
100
AcDbBlockEnd
  0
BLOCK
  5
662B
330
662A
100
AcDbEntity
  8
0
100
AcDbBlockBegin
  2
*D62
 70
     1
 10
0.0
 20
0.0
 30
0.0
  3
*D62
  1

  0
LINE
  5
316C
330
662A
100
AcDbEntity
  8
标注
100
AcDbLine
 10
140456.2003195284
 20
-70115.39641384532
 30
0.0
 11
140457.6386378931
 21
-70115.39641384532
 31
0.0
  0
LINE
  5
316D
330
662A
100
AcDbEntity
  8
标注
100
AcDbLine
 10
140448.3281467178
 20
-70230.39641384529
 30
0.0
 11
140457.6386378931
 21
-70230.39641384529
 31
0.0
  0
LINE
  5
316E
330
662A
100
AcDbEntity
  8
标注
100
AcDbLine
 10
140449.6386378931
 20
-70131.39641384531
 30
0.0
 11
140449.6386378931
 21
-70214.39641384527
 31
0.0
  0
LINE
  5
316F
330
662A
100
AcDbEntity
  8
标注
100
AcDbLine
 10
140449.6386378931
 20
-70230.39641384529
 30
0.0
 11
140449.6386378931
 21
-70246.39641384531
 31
0.0
  0
SOLID
  5
3170
330
662A
100
AcDbEntity
  8
标注
100
AcDbTrace
 10
140446.9719712264
 20
-70131.39641384531
 30
0.0
 11
140452.3053045597
 21
-70131.39641384531
 31
0.0
 12
140449.6386378931
 22
-70115.39641384532
 32
0.0
 13
140449.6386378931
 23
-70115.39641384532
 33
0.0
  0
SOLID
  5
3171
330
662A
100
AcDbEntity
  8
标注
100
AcDbTrace
 10
140446.9719712264
 20
-70214.39641384527
 30
0.0
 11
140452.3053045597
 21
-70214.39641384527
 31
0.0
 12
140449.6386378931
 22
-70230.39641384529
 32
0.0
 13
140449.6386378931
 23
-70230.39641384529
 33
0.0
  0
INSERT
  5
3172
330
662A
100
AcDbEntity
  8
标注
100
AcDbBlockReference
  2
*U63
 10
0.0
 20
0.0
 30
0.0
  0
POINT
  5
3173
330
662A
100
AcDbEntity
  8
DEFPOINTS
 62
     0
100
AcDbPoint
 10
140436.2003195284
 20
-70115.39641384532
 30
0.0
  0
POINT
  5
3174
330
662A
100
AcDbEntity
  8
DEFPOINTS
 62
     0
100
AcDbPoint
 10
140428.3281467178
 20
-70230.39641384529
 30
0.0
  0
POINT
  5
3175
330
662A
100
AcDbEntity
  8
DEFPOINTS
 62
     0
100
AcDbPoint
 10
140449.6386378931
 20
-70230.39641384529
 30
0.0
  0
ENDBLK
  5
3176
330
662A
100
AcDbEntity
  8
0
100
AcDbBlockEnd
  0
BLOCK
  5
662D
330
662C
100
AcDbEntity
  8
0
100
AcDbBlockBegin
  2
*U63
 70
     1
 10
0.0
 20
0.0
 30
0.0
  3
*U63
  1

  0
TEXT
  5
5A15
330
662C
100
AcDbEntity
  8
标注
100
AcDbText
 10
140457.6386378931
 20
-70285.46308051197
 30
0.0
 40
16.0
  1
115
 50
90.0
100
AcDbText
  0
ENDBLK
  5
5A17
330
662C
100
AcDbEntity
  8
0
100
AcDbBlockEnd
  0
BLOCK
  5
662F
330
662E
100
AcDbEntity
  8
0
100
AcDbBlockBegin
  2
*D64
 70
     1
 10
0.0
 20
0.0
 30
0.0
  3
*D64
  1

  0
LINE
  5
3179
330
662E
100
AcDbEntity
  8
标注
100
AcDbLine
 10
140140.6943552005
 20
-71345.23982618945
 30
0.0
 11
140140.6943552005
 21
-71384.523738156
 31
0.0
  0
LINE
  5
317A
330
662E
100
AcDbEntity
  8
标注
100
AcDbLine
 10
140906.6943552005
 20
-71345.23982618945
 30
0.0
 11
140906.6943552005
 21
-71384.523738156
 31
0.0
  0
LINE
  5
317B
330
662E
100
AcDbEntity
  8
标注
100
AcDbLine
 10
140156.6943552005
 20
-71376.52373815599
 30
0.0
 11
140490.3103285998
 21
-71376.52373815599
 31
0.0
  0
LINE
  5
317C
330
662E
100
AcDbEntity
  8
标注
100
AcDbLine
 10
140890.6943552005
 20
-71376.52373815599
 30
0.0
 11
140537.8658841554
 21
-71376.52373815599
 31
0.0
  0
SOLID
  5
317D
330
662E
100
AcDbEntity
  8
标注
100
AcDbTrace
 10
140156.6943552005
 20
-71373.85707148931
 30
0.0
 11
140156.6943552005
 21
-71379.19040482264
 31
0.0
 12
140140.6943552005
 22
-71376.52373815599
 32
0.0
 13
140140.6943552005
 23
-71376.52373815599
 33
0.0
  0
SOLID
  5
317E
330
662E
100
AcDbEntity
  8
标注
100
AcDbTrace
 10
140890.6943552005
 20
-71373.85707148931
 30
0.0
 11
140890.6943552005
 21
-71379.19040482264
 31
0.0
 12
140906.6943552005
 22
-71376.52373815599
 32
0.0
 13
140906.6943552005
 23
-71376.52373815599
 33
0.0
  0
INSERT
  5
317F
330
662E
100
AcDbEntity
  8
标注
100
AcDbBlockReference
  2
*U65
 10
0.0
 20
0.0
 30
0.0
  0
POINT
  5
3180
330
662E
100
AcDbEntity
  8
DEFPOINTS
 62
     0
100
AcDbPoint
 10
140140.6943552005
 20
-71325.23982618946
 30
0.0
  0
POINT
  5
3181
330
662E
100
AcDbEntity
  8
DEFPOINTS
 62
     0
100
AcDbPoint
 10
140906.6943552005
 20
-71325.23982618946
 30
0.0
  0
POINT
  5
3182
330
662E
100
AcDbEntity
  8
DEFPOINTS
 62
     0
100
AcDbPoint
 10
140906.6943552005
 20
-71376.52373815599
 30
0.0
  0
ENDBLK
  5
3183
330
662E
100
AcDbEntity
  8
0
100
AcDbBlockEnd
  0
BLOCK
  5
6631
330
6630
100
AcDbEntity
  8
0
100
AcDbBlockBegin
  2
*U65
 70
     1
 10
0.0
 20
0.0
 30
0.0
  3
*U65
  1

  0
TEXT
  5
5A19
330
6630
100
AcDbEntity
  8
标注
100
AcDbText
 10
140492.7547730443
 20
-71384.523738156
 30
0.0
 40
16.0
  1
766
100
AcDbText
  0
ENDBLK
  5
5A1B
330
6630
100
AcDbEntity
  8
0
100
AcDbBlockEnd
  0
BLOCK
  5
6633
330
6632
100
AcDbEntity
  8
0
100
AcDbBlockBegin
  2
*D66
 70
     1
 10
0.0
 20
0.0
 30
0.0
  3
*D66
  1

  0
LINE
  5
3186
330
6632
100
AcDbEntity
  8
标注
100
AcDbLine
 10
140926.6943552005
 20
-70914.83982618941
 30
0.0
 11
140972.030841108
 21
-70914.83982618941
 31
0.0
  0
LINE
  5
3187
330
6632
100
AcDbEntity
  8
标注
100
AcDbLine
 10
140926.6943552005
 20
-71325.23982618946
 30
0.0
 11
140972.030841108
 21
-71325.23982618946
 31
0.0
  0
LINE
  5
3188
330
6632
100
AcDbEntity
  8
标注
100
AcDbLine
 10
140964.030841108
 20
-70930.83982618945
 30
0.0
 11
140964.030841108
 21
-71084.39538174501
 31
0.0
  0
LINE
  5
3189
330
6632
100
AcDbEntity
  8
标注
100
AcDbLine
 10
140964.030841108
 20
-71309.23982618946
 30
0.0
 11
140964.030841108
 21
-71155.68427063392
 31
0.0
  0
SOLID
  5
318A
330
6632
100
AcDbEntity
  8
标注
100
AcDbTrace
 10
140961.3641744412
 20
-70930.83982618945
 30
0.0
 11
140966.6975077746
 21
-70930.83982618945
 31
0.0
 12
140964.030841108
 22
-70914.83982618941
 32
0.0
 13
140964.030841108
 23
-70914.83982618941
 33
0.0
  0
SOLID
  5
318B
330
6632
100
AcDbEntity
  8
标注
100
AcDbTrace
 10
140961.3641744412
 20
-71309.23982618946
 30
0.0
 11
140966.6975077746
 21
-71309.23982618946
 31
0.0
 12
140964.030841108
 22
-71325.23982618946
 32
0.0
 13
140964.030841108
 23
-71325.23982618946
 33
0.0
  0
INSERT
  5
318C
330
6632
100
AcDbEntity
  8
标注
100
AcDbBlockReference
  2
*U67
 10
0.0
 20
0.0
 30
0.0
  0
POINT
  5
318D
330
6632
100
AcDbEntity
  8
DEFPOINTS
 62
     0
100
AcDbPoint
 10
140906.6943552005
 20
-70914.83982618941
 30
0.0
  0
POINT
  5
318E
330
6632
100
AcDbEntity
  8
DEFPOINTS
 62
     0
100
AcDbPoint
 10
140906.6943552005
 20
-71325.23982618946
 30
0.0
  0
POINT
  5
318F
330
6632
100
AcDbEntity
  8
DEFPOINTS
 62
     0
100
AcDbPoint
 10
140964.030841108
 20
-71325.23982618946
 30
0.0
  0
ENDBLK
  5
3190
330
6632
100
AcDbEntity
  8
0
100
AcDbBlockEnd
  0
BLOCK
  5
6635
330
6634
100
AcDbEntity
  8
0
100
AcDbBlockBegin
  2
*U67
 70
     1
 10
0.0
 20
0.0
 30
0.0
  3
*U67
  1

  0
TEXT
  5
5A1D
330
6634
100
AcDbEntity
  8
标注
100
AcDbText
 10
140970.6975077746
 20
-71149.37315952276
 30
0.0
 40
16.0
  1
410,4
 50
90.0
100
AcDbText
  0
ENDBLK
  5
5A1F
330
6634
100
AcDbEntity
  8
0
100
AcDbBlockEnd
  0
BLOCK
  5
6637
330
6636
100
AcDbEntity
  8
0
100
AcDbBlockBegin
  2
*U68
 70
     1
 10
0.0
 20
0.0
 30
0.0
  3
*U68
  1

  0
CIRCLE
  5
5A21
330
6636
100
AcDbEntity
  8
0
100
AcDbCircle
 10
209.5500341232983
 20
1157.784824837741
 30
0.0
 40
58.0
  0
ENDBLK
  5
5A23
330
6636
100
AcDbEntity
  8
0
100
AcDbBlockEnd
  0
BLOCK
  5
6639
330
6638
100
AcDbEntity
  8
0
100
AcDbBlockBegin
  2
*U69
 70
     1
 10
0.0
 20
0.0
 30
0.0
  3
*U69
  1

  0
CIRCLE
  5
5A25
330
6638
100
AcDbEntity
  8
0
100
AcDbCircle
 10
603.2500341233972
 20
1157.784824837741
 30
0.0
 40
58.0
  0
ENDBLK
  5
5A27
330
6638
100
AcDbEntity
  8
0
100
AcDbBlockEnd
  0
BLOCK
  5
663B
330
663A
100
AcDbEntity
  8
0
100
AcDbBlockBegin
  2
*U70
 70
     1
 10
0.0
 20
0.0
 30
0.0
  3
*U70
  1

  0
TEXT
  5
5A2D
330
663A
100
AcDbEntity
  8
标注
100
AcDbText
 10
620.0195772741396
 20
145.9487452694918
 30
0.0
 40
0.65
  1
28"
100
AcDbText
  0
ENDBLK
  5
5A2F
330
663A
100
AcDbEntity
  8
0
100
AcDbBlockEnd
  0
BLOCK
  5
663D
330
663C
100
AcDbEntity
  8
0
100
AcDbBlockBegin
  2
*U71
 70
     1
 10
0.0
 20
0.0
 30
0.0
  3
*U71
  1

  0
TEXT
  5
5A41
330
663C
100
AcDbEntity
  8
标注
100
AcDbText
 10
620.0737439408062
 20
144.534588411535
 30
0.0
 40
0.65
  1
30"
100
AcDbText
  0
ENDBLK
  5
5A43
330
663C
100
AcDbEntity
  8
0
100
AcDbBlockEnd
  0
BLOCK
  5
663F
330
663E
100
AcDbEntity
  8
0
100
AcDbBlockBegin
  2
*U72
 70
     1
 10
0.0
 20
0.0
 30
0.0
  3
*U72
  1

  0
TEXT
  5
5A31
330
663E
100
AcDbEntity
  8
标注
100
AcDbText
 10
637.6837223038664
 20
156.5142389932595
 30
0.0
 40
0.65
  1
16"
 50
90.0
100
AcDbText
  0
ENDBLK
  5
5A33
330
663E
100
AcDbEntity
  8
0
100
AcDbBlockEnd
  0
BLOCK
  5
6641
330
6640
100
AcDbEntity
  8
0
100
AcDbBlockBegin
  2
*U73
 70
     1
 10
0.0
 20
0.0
 30
0.0
  3
*U73
  1

  0
TEXT
  5
5A35
330
6640
100
AcDbEntity
  8
标注
100
AcDbText
 10
639.0643314147125
 20
156.514238993274
 30
0.0
 40
0.65
  1
18"
 50
90.0
100
AcDbText
  0
ENDBLK
  5
5A37
330
6640
100
AcDbEntity
  8
0
100
AcDbBlockEnd
  0
BLOCK
  5
6643
330
6642
100
AcDbEntity
  8
0
100
AcDbBlockBegin
  2
*U74
 70
     1
 10
0.0
 20
0.0
 30
0.0
  3
*U74
  1

  0
TEXT
  5
5A39
330
6642
100
AcDbEntity
  8
标注
100
AcDbText
 10
637.8559819662929
 20
180.4951313662244
 30
0.0
 40
0.65
  1
9"
 50
90.0
100
AcDbText
  0
ENDBLK
  5
5A3B
330
6642
100
AcDbEntity
  8
0
100
AcDbBlockEnd
  0
BLOCK
  5
6645
330
6644
100
AcDbEntity
  8
0
100
AcDbBlockBegin
  2
*U75
 70
     1
 10
0.0
 20
0.0
 30
0.0
  3
*U75
  1

  0
TEXT
  5
5A3D
330
6644
100
AcDbEntity
  8
标注
100
AcDbText
 10
608.1847912538362
 20
150.2708602844
 30
0.0
 40
0.65
  1
R5/8"
 50
51.96522547995805
100
AcDbText
  0
ENDBLK
  5
5A3F
330
6644
100
AcDbEntity
  8
0
100
AcDbBlockEnd
  0
BLOCK
  5
6647
330
6646
100
AcDbEntity
  8
0
100
AcDbBlockBegin
  2
*U76
 70
     1
 10
0.0
 20
0.0
 30
0.0
  3
*U76
  1

  0
TEXT
  5
5A45
330
6646
100
AcDbEntity
  8
标注
100
AcDbText
 10
618.0525236401257
 20
114.6398949789023
 30
0.0
 40
0.65
  1
28 1/8"
100
AcDbText
  0
ENDBLK
  5
5A47
330
6646
100
AcDbEntity
  8
0
100
AcDbBlockEnd
  0
BLOCK
  5
6649
330
6648
100
AcDbEntity
  8
0
100
AcDbBlockBegin
  2
*U77
 70
     1
 10
0.0
 20
0.0
 30
0.0
  3
*U77
  1

  0
TEXT
  5
5A49
330
6648
100
AcDbEntity
  8
标注
100
AcDbText
 10
636.5294929201876
 20
123.284062846423
 30
0.0
 40
0.65
  1
16 1/8"
 50
90.0
100
AcDbText
  0
ENDBLK
  5
5A4B
330
6648
100
AcDbEntity
  8
0
100
AcDbBlockEnd
  0
BLOCK
  5
664B
330
664A
100
AcDbEntity
  8
0
100
AcDbBlockBegin
  2
*U78
 70
     1
 10
0.0
 20
0.0
 30
0.0
  3
*U78
  1

  0
CIRCLE
  5
5A4D
330
664A
100
AcDbEntity
  8
0
100
AcDbCircle
 10
15.00001792055264
 20
43.05039424673305
 30
0.0
 40
2.28346456692
  0
ENDBLK
  5
5A4F
330
664A
100
AcDbEntity
  8
0
100
AcDbBlockEnd
  0
BLOCK
  5
664D
330
664C
100
AcDbEntity
  8
0
100
AcDbBlockBegin
  2
*D79
 70
     1
 10
0.0
 20
0.0
 30
0.0
  3
*D79
  1

  0
LINE
  5
3701
330
664C
100
AcDbEntity
  8
标注线
100
AcDbLine
 10
140950.0488374628
 20
-70089.99641384531
 30
0.0
 11
140995.1121705672
 21
-70089.99641384531
 31
0.0
  0
LINE
  5
3702
330
664C
100
AcDbEntity
  8
标注线
100
AcDbLine
 10
140924.6113374628
 20
-70115.39641384527
 30
0.0
 11
140995.1121705672
 21
-70115.39641384527
 31
0.0
  0
LINE
  5
3703
330
664C
100
AcDbEntity
  8
标注线
100
AcDbLine
 10
140987.1121705672
 20
-70131.39641384527
 30
0.0
 11
140987.1121705672
 21
-70147.39641384527
 31
0.0
  0
LINE
  5
3704
330
664C
100
AcDbEntity
  8
标注线
100
AcDbLine
 10
140987.1121705672
 20
-70073.9964138453
 30
0.0
 11
140987.1121705672
 21
-70044.55196940088
 31
0.0
  0
LINE
  5
3705
330
664C
100
AcDbEntity
  8
标注线
100
AcDbLine
 10
140987.1121705672
 20
-70115.39641384527
 30
0.0
 11
140987.1121705672
 21
-70089.99641384531
 31
0.0
  0
SOLID
  5
3706
330
664C
100
AcDbEntity
  8
标注线
100
AcDbTrace
 10
140984.4455039005
 20
-70131.39641384527
 30
0.0
 11
140989.7788372338
 21
-70131.39641384527
 31
0.0
 12
140987.1121705672
 22
-70115.39641384527
 32
0.0
 13
140987.1121705672
 23
-70115.39641384527
 33
0.0
  0
SOLID
  5
3707
330
664C
100
AcDbEntity
  8
标注线
100
AcDbTrace
 10
140984.4455039005
 20
-70073.9964138453
 30
0.0
 11
140989.7788372338
 21
-70073.9964138453
 31
0.0
 12
140987.1121705672
 22
-70089.99641384531
 32
0.0
 13
140987.1121705672
 23
-70089.99641384531
 33
0.0
  0
INSERT
  5
3708
330
664C
100
AcDbEntity
  8
标注
100
AcDbBlockReference
  2
*U80
 10
0.0
 20
0.0
 30
0.0
  0
POINT
  5
3709
330
664C
100
AcDbEntity
  8
DEFPOINTS
 62
     0
100
AcDbPoint
 10
140930.0488374628
 20
-70089.99641384531
 30
0.0
  0
POINT
  5
370A
330
664C
100
AcDbEntity
  8
DEFPOINTS
 62
     0
100
AcDbPoint
 10
140904.6113374628
 20
-70115.39641384527
 30
0.0
  0
POINT
  5
370B
330
664C
100
AcDbEntity
  8
DEFPOINTS
 62
     0
100
AcDbPoint
 10
140987.1121705672
 20
-70115.39641384527
 30
0.0
  0
ENDBLK
  5
370C
330
664C
100
AcDbEntity
  8
0
100
AcDbBlockEnd
  0
BLOCK
  5
664F
330
664E
100
AcDbEntity
  8
0
100
AcDbBlockBegin
  2
*U80
 70
     1
 10
0.0
 20
0.0
 30
0.0
  3
*U80
  1

  0
TEXT
  5
5A51
330
664E
100
AcDbEntity
  8
标注线
100
AcDbText
 10
140993.7788372339
 20
-70040.1075249564
 30
0.0
 40
16.0
  1
25,4
 50
90.0
100
AcDbText
  0
ENDBLK
  5
5A53
330
664E
100
AcDbEntity
  8
0
100
AcDbBlockEnd
  0
BLOCK
  5
6651
330
6650
100
AcDbEntity
  8
0
100
AcDbBlockBegin
  2
*D81
 70
     1
 10
0.0
 20
0.0
 30
0.0
  3
*D81
  1

  0
LINE
  5
370F
330
6650
100
AcDbEntity
  8
标注线
100
AcDbLine
 10
140510.9113374628
 20
-70541.79641384534
 30
0.0
 11
140510.9113374628
 21
-70609.63046974383
 31
0.0
  0
LINE
  5
3710
330
6650
100
AcDbEntity
  8
标注线
100
AcDbLine
 10
140142.6113374628
 20
-70541.79641384534
 30
0.0
 11
140142.6113374628
 21
-70609.63046974383
 31
0.0
  0
LINE
  5
3711
330
6650
100
AcDbEntity
  8
标注线
100
AcDbLine
 10
140494.9113374628
 20
-70601.63046974383
 30
0.0
 11
140361.8280041295
 21
-70601.63046974383
 31
0.0
  0
LINE
  5
3712
330
6650
100
AcDbEntity
  8
标注线
100
AcDbLine
 10
140158.6113374628
 20
-70601.63046974383
 30
0.0
 11
140291.6946707961
 21
-70601.63046974383
 31
0.0
  0
SOLID
  5
3713
330
6650
100
AcDbEntity
  8
标注线
100
AcDbTrace
 10
140494.9113374628
 20
-70598.96380307716
 30
0.0
 11
140494.9113374628
 21
-70604.2971364105
 31
0.0
 12
140510.9113374628
 22
-70601.63046974383
 32
0.0
 13
140510.9113374628
 23
-70601.63046974383
 33
0.0
  0
SOLID
  5
3714
330
6650
100
AcDbEntity
  8
标注线
100
AcDbTrace
 10
140158.6113374628
 20
-70598.96380307716
 30
0.0
 11
140158.6113374628
 21
-70604.2971364105
 31
0.0
 12
140142.6113374628
 22
-70601.63046974383
 32
0.0
 13
140142.6113374628
 23
-70601.63046974383
 33
0.0
  0
INSERT
  5
3715
330
6650
100
AcDbEntity
  8
标注
100
AcDbBlockReference
  2
*U82
 10
0.0
 20
0.0
 30
0.0
  0
POINT
  5
3716
330
6650
100
AcDbEntity
  8
DEFPOINTS
 62
     0
100
AcDbPoint
 10
140510.9113374628
 20
-70521.79641384534
 30
0.0
  0
POINT
  5
3717
330
6650
100
AcDbEntity
  8
DEFPOINTS
 62
     0
100
AcDbPoint
 10
140142.6113374628
 20
-70521.79641384534
 30
0.0
  0
POINT
  5
3718
330
6650
100
AcDbEntity
  8
DEFPOINTS
 62
     0
100
AcDbPoint
 10
140142.6113374628
 20
-70601.63046974383
 30
0.0
  0
ENDBLK
  5
3719
330
6650
100
AcDbEntity
  8
0
100
AcDbBlockEnd
  0
BLOCK
  5
6653
330
6652
100
AcDbEntity
  8
0
100
AcDbBlockBegin
  2
*U82
 70
     1
 10
0.0
 20
0.0
 30
0.0
  3
*U82
  1

  0
TEXT
  5
5A55
330
6652
100
AcDbEntity
  8
标注线
100
AcDbText
 10
140293.4280041294
 20
-70608.2971364105
 30
0.0
 40
16.0
  1
368,3
100
AcDbText
  0
ENDBLK
  5
5A57
330
6652
100
AcDbEntity
  8
0
100
AcDbBlockEnd
  0
BLOCK
  5
6655
330
6654
100
AcDbEntity
  8
0
100
AcDbBlockBegin
  2
*D83
 70
     1
 10
0.0
 20
0.0
 30
0.0
  3
*D83
  1

  0
LINE
  5
371C
330
6654
100
AcDbEntity
  8
标注线
100
AcDbLine
 10
140117.2113374628
 20
-70567.19641384537
 30
0.0
 11
140117.2113374628
 21
-70666.8135954847
 31
0.0
  0
LINE
  5
371D
330
6654
100
AcDbEntity
  8
标注线
100
AcDbLine
 10
140930.0113374628
 20
-70567.19641384535
 30
0.0
 11
140930.0113374628
 21
-70666.8135954847
 31
0.0
  0
LINE
  5
371E
330
6654
100
AcDbEntity
  8
标注线
100
AcDbLine
 10
140133.2113374628
 20
-70658.81359548472
 30
0.0
 11
140488.3224485739
 21
-70658.81359548472
 31
0.0
  0
LINE
  5
371F
330
6654
100
AcDbEntity
  8
标注线
100
AcDbLine
 10
140914.0113374628
 20
-70658.81359548472
 30
0.0
 11
140558.9002263517
 21
-70658.81359548472
 31
0.0
  0
SOLID
  5
3720
330
6654
100
AcDbEntity
  8
标注线
100
AcDbTrace
 10
140133.2113374628
 20
-70656.14692881804
 30
0.0
 11
140133.2113374628
 21
-70661.48026215138
 31
0.0
 12
140117.2113374628
 22
-70658.81359548472
 32
0.0
 13
140117.2113374628
 23
-70658.81359548472
 33
0.0
  0
SOLID
  5
3721
330
6654
100
AcDbEntity
  8
标注线
100
AcDbTrace
 10
140914.0113374628
 20
-70656.14692881804
 30
0.0
 11
140914.0113374628
 21
-70661.48026215138
 31
0.0
 12
140930.0113374628
 22
-70658.81359548472
 32
0.0
 13
140930.0113374628
 23
-70658.81359548472
 33
0.0
  0
INSERT
  5
3722
330
6654
100
AcDbEntity
  8
标注
100
AcDbBlockReference
  2
*U84
 10
0.0
 20
0.0
 30
0.0
  0
POINT
  5
3723
330
6654
100
AcDbEntity
  8
DEFPOINTS
 62
     0
100
AcDbPoint
 10
140117.2113374628
 20
-70547.19641384537
 30
0.0
  0
POINT
  5
3724
330
6654
100
AcDbEntity
  8
DEFPOINTS
 62
     0
100
AcDbPoint
 10
140930.0113374628
 20
-70547.19641384535
 30
0.0
  0
POINT
  5
3725
330
6654
100
AcDbEntity
  8
DEFPOINTS
 62
     0
100
AcDbPoint
 10
140930.0113374628
 20
-70658.81359548472
 30
0.0
  0
ENDBLK
  5
3726
330
6654
100
AcDbEntity
  8
0
100
AcDbBlockEnd
  0
BLOCK
  5
6657
330
6656
100
AcDbEntity
  8
0
100
AcDbBlockBegin
  2
*U84
 70
     1
 10
0.0
 20
0.0
 30
0.0
  3
*U84
  1

  0
TEXT
  5
5A59
330
6656
100
AcDbEntity
  8
标注线
100
AcDbText
 10
140492.9446707962
 20
-70665.48026215138
 30
0.0
 40
16.0
  1
812,8
100
AcDbText
  0
ENDBLK
  5
5A5B
330
6656
100
AcDbEntity
  8
0
100
AcDbBlockEnd
  0
BLOCK
  5
6659
330
6658
100
AcDbEntity
  8
0
100
AcDbBlockBegin
  2
*D85
 70
     1
 10
0.0
 20
0.0
 30
0.0
  3
*D85
  1

  0
LINE
  5
3729
330
6658
100
AcDbEntity
  8
标注线
100
AcDbLine
 10
140536.3113374628
 20
-70541.79641384534
 30
0.0
 11
140536.3113374628
 21
-70609.63046974383
 31
0.0
  0
LINE
  5
372A
330
6658
100
AcDbEntity
  8
标注线
100
AcDbLine
 10
140904.6113374628
 20
-70541.79641384537
 30
0.0
 11
140904.6113374628
 21
-70609.63046974383
 31
0.0
  0
LINE
  5
372B
330
6658
100
AcDbEntity
  8
标注线
100
AcDbLine
 10
140552.3113374628
 20
-70601.63046974383
 30
0.0
 11
140685.3946707961
 21
-70601.63046974383
 31
0.0
  0
LINE
  5
372C
330
6658
100
AcDbEntity
  8
标注线
100
AcDbLine
 10
140888.6113374628
 20
-70601.63046974383
 30
0.0
 11
140755.5280041295
 21
-70601.63046974383
 31
0.0
  0
SOLID
  5
372D
330
6658
100
AcDbEntity
  8
标注线
100
AcDbTrace
 10
140552.3113374628
 20
-70598.96380307716
 30
0.0
 11
140552.3113374628
 21
-70604.2971364105
 31
0.0
 12
140536.3113374628
 22
-70601.63046974383
 32
0.0
 13
140536.3113374628
 23
-70601.63046974383
 33
0.0
  0
SOLID
  5
372E
330
6658
100
AcDbEntity
  8
标注线
100
AcDbTrace
 10
140888.6113374628
 20
-70598.96380307716
 30
0.0
 11
140888.6113374628
 21
-70604.2971364105
 31
0.0
 12
140904.6113374628
 22
-70601.63046974383
 32
0.0
 13
140904.6113374628
 23
-70601.63046974383
 33
0.0
  0
INSERT
  5
372F
330
6658
100
AcDbEntity
  8
标注
100
AcDbBlockReference
  2
*U86
 10
0.0
 20
0.0
 30
0.0
  0
POINT
  5
3730
330
6658
100
AcDbEntity
  8
DEFPOINTS
 62
     0
100
AcDbPoint
 10
140536.3113374628
 20
-70521.79641384534
 30
0.0
  0
POINT
  5
3731
330
6658
100
AcDbEntity
  8
DEFPOINTS
 62
     0
100
AcDbPoint
 10
140904.6113374628
 20
-70521.79641384537
 30
0.0
  0
POINT
  5
3732
330
6658
100
AcDbEntity
  8
DEFPOINTS
 62
     0
100
AcDbPoint
 10
140904.6113374628
 20
-70601.63046974383
 30
0.0
  0
ENDBLK
  5
3733
330
6658
100
AcDbEntity
  8
0
100
AcDbBlockEnd
  0
BLOCK
  5
665B
330
665A
100
AcDbEntity
  8
0
100
AcDbBlockBegin
  2
*U86
 70
     1
 10
0.0
 20
0.0
 30
0.0
  3
*U86
  1

  0
TEXT
  5
5A5D
330
665A
100
AcDbEntity
  8
标注线
100
AcDbText
 10
140687.1280041294
 20
-70608.2971364105
 30
0.0
 40
16.0
  1
368,3
100
AcDbText
  0
ENDBLK
  5
5A5F
330
665A
100
AcDbEntity
  8
0
100
AcDbBlockEnd
  0
BLOCK
  5
665D
330
665C
100
AcDbEntity
  8
0
100
AcDbBlockBegin
  2
*D87
 70
     1
 10
0.0
 20
0.0
 30
0.0
  3
*D87
  1

  0
LINE
  5
3736
330
665C
100
AcDbEntity
  8
标注线
100
AcDbLine
 10
140910.0113374628
 20
-69672.3030824044
 30
0.0
 11
140790.1178851889
 21
-69672.3030824044
 31
0.0
  0
LINE
  5
3737
330
665C
100
AcDbEntity
  8
标注线
100
AcDbLine
 10
140793.1510664378
 20
-69926.31554786902
 30
0.0
 11
140790.1178851889
 21
-69926.31554786902
 31
0.0
  0
LINE
  5
3738
330
665C
100
AcDbEntity
  8
标注线
100
AcDbLine
 10
140798.1178851889
 20
-69688.30308240441
 30
0.0
 11
140798.1178851889
 21
-69800.62042624777
 31
0.0
  0
LINE
  5
3739
330
665C
100
AcDbEntity
  8
标注线
100
AcDbLine
 10
140798.1178851889
 20
-69910.31554786902
 30
0.0
 11
140798.1178851889
 21
-69848.79820402555
 31
0.0
  0
SOLID
  5
373A
330
665C
100
AcDbEntity
  8
标注线
100
AcDbTrace
 10
140795.4512185223
 20
-69688.30308240441
 30
0.0
 11
140800.7845518556
 21
-69688.30308240441
 31
0.0
 12
140798.1178851889
 22
-69672.3030824044
 32
0.0
 13
140798.1178851889
 23
-69672.3030824044
 33
0.0
  0
SOLID
  5
373B
330
665C
100
AcDbEntity
  8
标注线
100
AcDbTrace
 10
140795.4512185223
 20
-69910.31554786902
 30
0.0
 11
140800.7845518556
 21
-69910.31554786902
 31
0.0
 12
140798.1178851889
 22
-69926.31554786902
 32
0.0
 13
140798.1178851889
 23
-69926.31554786902
 33
0.0
  0
INSERT
  5
373C
330
665C
100
AcDbEntity
  8
标注
100
AcDbBlockReference
  2
*U88
 10
0.0
 20
0.0
 30
0.0
  0
POINT
  5
373D
330
665C
100
AcDbEntity
  8
DEFPOINTS
 62
     0
100
AcDbPoint
 10
140930.0113374628
 20
-69672.3030824044
 30
0.0
  0
POINT
  5
373E
330
665C
100
AcDbEntity
  8
DEFPOINTS
 62
     0
100
AcDbPoint
 10
140813.1510664378
 20
-69926.31554786902
 30
0.0
  0
POINT
  5
373F
330
665C
100
AcDbEntity
  8
DEFPOINTS
 62
     0
100
AcDbPoint
 10
140798.1178851889
 20
-69926.31554786902
 30
0.0
  0
ENDBLK
  5
3740
330
665C
100
AcDbEntity
  8
0
100
AcDbBlockEnd
  0
BLOCK
  5
665F
330
665E
100
AcDbEntity
  8
0
100
AcDbBlockBegin
  2
*U88
 70
     1
 10
0.0
 20
0.0
 30
0.0
  3
*U88
  1

  0
TEXT
  5
5A61
330
665E
100
AcDbEntity
  8
标注线
100
AcDbText
 10
140806.1178851889
 20
-69846.04264846997
 30
0.0
 40
16.0
  1
254
 50
90.0
100
AcDbText
  0
ENDBLK
  5
5A63
330
665E
100
AcDbEntity
  8
0
100
AcDbBlockEnd
  0
BLOCK
  5
6661
330
6660
100
AcDbEntity
  8
0
100
AcDbBlockBegin
  2
*D89
 70
     1
 10
0.0
 20
0.0
 30
0.0
  3
*D89
  1

  0
LINE
  5
3743
330
6660
100
AcDbEntity
  8
标注线
100
AcDbLine
 10
140253.7891588467
 20
-70256.49835147489
 30
0.0
 11
140268.854382819
 21
-70251.10956435138
 31
0.0
  0
LINE
  5
3744
330
6660
100
AcDbEntity
  8
标注线
100
AcDbLine
 10
140384.6682921066
 20
-70209.68326333923
 30
0.0
 11
140399.733516079
 21
-70204.2944762157
 31
0.0
  0
INSERT
  5
3745
330
6660
100
AcDbEntity
  8
标注
100
AcDbBlockReference
  2
*U90
 10
0.0
 20
0.0
 30
0.0
  0
LINE
  5
3746
330
6660
100
AcDbEntity
  8
标注线
100
AcDbLine
 10
140369.6030681343
 20
-70215.07205046275
 30
0.0
 11
140283.9196067914
 21
-70245.72077722782
 31
0.0
  0
SOLID
  5
3747
330
6660
100
AcDbEntity
  8
标注线
100
AcDbTrace
 10
140383.7701609194
 20
-70207.17239267718
 30
0.0
 11
140385.5664232939
 21
-70212.1941340013
 31
0.0
 12
140369.6030681343
 22
-70215.07205046275
 32
0.0
 13
140369.6030681343
 23
-70215.07205046275
 33
0.0
  0
SOLID
  5
3748
330
6660
100
AcDbEntity
  8
标注线
100
AcDbTrace
 10
140267.9562516318
 20
-70248.59869368927
 30
0.0
 11
140269.7525140063
 21
-70253.62043501339
 31
0.0
 12
140283.9196067914
 22
-70245.72077722782
 32
0.0
 13
140283.9196067914
 23
-70245.72077722782
 33
0.0
  0
POINT
  5
3749
330
6660
100
AcDbEntity
  8
DEFPOINTS
 62
     0
100
AcDbPoint
 10
140283.9196067914
 20
-70245.72077722782
 30
0.0
  0
POINT
  5
374A
330
6660
100
AcDbEntity
  8
DEFPOINTS
 62
     0
100
AcDbPoint
 10
140369.6030681343
 20
-70215.07205046275
 30
0.0
  0
ENDBLK
  5
374B
330
6660
100
AcDbEntity
  8
0
100
AcDbBlockEnd
  0
BLOCK
  5
6663
330
6662
100
AcDbEntity
  8
0
100
AcDbBlockBegin
  2
*U90
 70
     1
 10
0.0
 20
0.0
 30
0.0
  3
*U90
  1

  0
TEXT
  5
5A65
330
6662
100
AcDbEntity
  8
标注线
100
AcDbText
 10
140216.4855729792
 20
-70278.33812523378
 30
0.0
 40
16.0
  1
\U+220591
 50
19.68198327342026
100
AcDbText
  0
ENDBLK
  5
5A67
330
6662
100
AcDbEntity
  8
0
100
AcDbBlockEnd
  0
BLOCK
  5
6665
330
6664
100
AcDbEntity
  8
0
100
AcDbBlockBegin
  2
*D91
 70
     1
 10
0.0
 20
0.0
 30
0.0
  3
*D91
  1

  0
LINE
  5
374E
330
6664
100
AcDbEntity
  8
标注线
100
AcDbLine
 10
140261.5833454221
 20
-70292.45952167551
 30
0.0
 11
140273.1705440071
 21
-70281.42608028347
 31
0.0
  0
LINE
  5
374F
330
6664
100
AcDbEntity
  8
标注线
100
AcDbLine
 10
140380.3521309183
 20
-70179.36674740719
 30
0.0
 11
140391.9393295034
 21
-70168.33330601512
 31
0.0
  0
INSERT
  5
3750
330
6664
100
AcDbEntity
  8
标注
100
AcDbBlockReference
  2
*U92
 10
0.0
 20
0.0
 30
0.0
  0
LINE
  5
3751
330
6664
100
AcDbEntity
  8
标注线
100
AcDbLine
 10
140368.7649323333
 20
-70190.40018879923
 30
0.0
 11
140284.7577425921
 21
-70270.39263889144
 31
0.0
  0
SOLID
  5
3752
330
6664
100
AcDbEntity
  8
标注线
100
AcDbTrace
 10
140378.5132240197
 20
-70177.43554764302
 30
0.0
 11
140382.191037817
 21
-70181.29794717133
 31
0.0
 12
140368.7649323333
 22
-70190.40018879923
 32
0.0
 13
140368.7649323333
 23
-70190.40018879923
 33
0.0
  0
SOLID
  5
3753
330
6664
100
AcDbEntity
  8
标注线
100
AcDbTrace
 10
140271.3316371084
 20
-70279.49488051932
 30
0.0
 11
140275.0094509057
 21
-70283.35728004764
 31
0.0
 12
140284.7577425921
 22
-70270.39263889144
 32
0.0
 13
140284.7577425921
 23
-70270.39263889144
 33
0.0
  0
POINT
  5
3754
330
6664
100
AcDbEntity
  8
DEFPOINTS
 62
     0
100
AcDbPoint
 10
140284.7577425921
 20
-70270.39263889144
 30
0.0
  0
POINT
  5
3755
330
6664
100
AcDbEntity
  8
DEFPOINTS
 62
     0
100
AcDbPoint
 10
140368.7649323333
 20
-70190.40018879923
 30
0.0
  0
ENDBLK
  5
3756
330
6664
100
AcDbEntity
  8
0
100
AcDbBlockEnd
  0
BLOCK
  5
6667
330
6666
100
AcDbEntity
  8
0
100
AcDbBlockBegin
  2
*U92
 70
     1
 10
0.0
 20
0.0
 30
0.0
  3
*U92
  1

  0
TEXT
  5
5A69
330
6666
100
AcDbEntity
  8
标注线
100
AcDbText
 10
140227.9354812038
 20
-70335.546013562
 30
0.0
 40
16.0
  1
\U+2205116
 50
43.59766945680495
100
AcDbText
  0
ENDBLK
  5
5A6B
330
6666
100
AcDbEntity
  8
0
100
AcDbBlockEnd
  0
BLOCK
  5
6669
330
6668
100
AcDbEntity
  8
0
100
AcDbBlockBegin
  2
*D93
 70
     1
 10
0.0
 20
0.0
 30
0.0
  3
*D93
  1

  0
LINE
  5
3759
330
6668
100
AcDbEntity
  8
标注线
100
AcDbLine
 10
140510.9113374628
 20
-70327.7956356032
 30
0.0
 11
140510.9113374628
 21
-70288.48650776196
 31
0.0
  0
LINE
  5
375A
330
6668
100
AcDbEntity
  8
标注线
100
AcDbLine
 10
140536.3113374628
 20
-70327.7956356032
 30
0.0
 11
140536.3113374628
 21
-70288.48650776196
 31
0.0
  0
LINE
  5
375B
330
6668
100
AcDbEntity
  8
标注线
100
AcDbLine
 10
140494.9113374628
 20
-70296.48650776196
 30
0.0
 11
140478.9113374628
 21
-70296.48650776196
 31
0.0
  0
LINE
  5
375C
330
6668
100
AcDbEntity
  8
标注线
100
AcDbLine
 10
140552.3113374628
 20
-70296.48650776196
 30
0.0
 11
140568.3113374628
 21
-70296.48650776196
 31
0.0
  0
LINE
  5
375D
330
6668
100
AcDbEntity
  8
标注线
100
AcDbLine
 10
140510.9113374628
 20
-70296.48650776196
 30
0.0
 11
140536.3113374628
 21
-70296.48650776196
 31
0.0
  0
SOLID
  5
375E
330
6668
100
AcDbEntity
  8
标注线
100
AcDbTrace
 10
140494.9113374628
 20
-70293.81984109529
 30
0.0
 11
140494.9113374628
 21
-70299.15317442862
 31
0.0
 12
140510.9113374628
 22
-70296.48650776196
 32
0.0
 13
140510.9113374628
 23
-70296.48650776196
 33
0.0
  0
SOLID
  5
375F
330
6668
100
AcDbEntity
  8
标注线
100
AcDbTrace
 10
140552.3113374628
 20
-70293.81984109529
 30
0.0
 11
140552.3113374628
 21
-70299.15317442862
 31
0.0
 12
140536.3113374628
 22
-70296.48650776196
 32
0.0
 13
140536.3113374628
 23
-70296.48650776196
 33
0.0
  0
INSERT
  5
3760
330
6668
100
AcDbEntity
  8
标注
100
AcDbBlockReference
  2
*U94
 10
0.0
 20
0.0
 30
0.0
  0
POINT
  5
3761
330
6668
100
AcDbEntity
  8
DEFPOINTS
 62
     0
100
AcDbPoint
 10
140510.9113374628
 20
-70347.79563560321
 30
0.0
  0
POINT
  5
3762
330
6668
100
AcDbEntity
  8
DEFPOINTS
 62
     0
100
AcDbPoint
 10
140536.3113374628
 20
-70347.79563560321
 30
0.0
  0
POINT
  5
3763
330
6668
100
AcDbEntity
  8
DEFPOINTS
 62
     0
100
AcDbPoint
 10
140536.3113374628
 20
-70296.48650776196
 30
0.0
  0
ENDBLK
  5
3764
330
6668
100
AcDbEntity
  8
0
100
AcDbBlockEnd
  0
BLOCK
  5
666B
330
666A
100
AcDbEntity
  8
0
100
AcDbBlockBegin
  2
*U94
 70
     1
 10
0.0
 20
0.0
 30
0.0
  3
*U94
  1

  0
TEXT
  5
5A6D
330
666A
100
AcDbEntity
  8
标注线
100
AcDbText
 10
140572.7557819073
 20
-70303.15317442862
 30
0.0
 40
16.0
  1
25,4
100
AcDbText
  0
ENDBLK
  5
5A6F
330
666A
100
AcDbEntity
  8
0
100
AcDbBlockEnd
  0
BLOCK
  5
666D
330
666C
100
AcDbEntity
  8
0
100
AcDbBlockBegin
  2
*D95
 70
     1
 10
0.0
 20
0.0
 30
0.0
  3
*D95
  1

  0
LINE
  5
3767
330
666C
100
AcDbEntity
  8
标注
100
AcDbLine
 10
140456.2003195284
 20
-70115.39641384532
 30
0.0
 11
140457.6386378931
 21
-70115.39641384532
 31
0.0
  0
LINE
  5
3768
330
666C
100
AcDbEntity
  8
标注
100
AcDbLine
 10
140448.3281467178
 20
-70230.39641384529
 30
0.0
 11
140457.6386378931
 21
-70230.39641384529
 31
0.0
  0
LINE
  5
3769
330
666C
100
AcDbEntity
  8
标注
100
AcDbLine
 10
140449.6386378931
 20
-70131.39641384531
 30
0.0
 11
140449.6386378931
 21
-70214.39641384527
 31
0.0
  0
LINE
  5
376A
330
666C
100
AcDbEntity
  8
标注
100
AcDbLine
 10
140449.6386378931
 20
-70230.39641384529
 30
0.0
 11
140449.6386378931
 21
-70246.39641384531
 31
0.0
  0
SOLID
  5
376B
330
666C
100
AcDbEntity
  8
标注
100
AcDbTrace
 10
140446.9719712264
 20
-70131.39641384531
 30
0.0
 11
140452.3053045597
 21
-70131.39641384531
 31
0.0
 12
140449.6386378931
 22
-70115.39641384532
 32
0.0
 13
140449.6386378931
 23
-70115.39641384532
 33
0.0
  0
SOLID
  5
376C
330
666C
100
AcDbEntity
  8
标注
100
AcDbTrace
 10
140446.9719712264
 20
-70214.39641384527
 30
0.0
 11
140452.3053045597
 21
-70214.39641384527
 31
0.0
 12
140449.6386378931
 22
-70230.39641384529
 32
0.0
 13
140449.6386378931
 23
-70230.39641384529
 33
0.0
  0
INSERT
  5
376D
330
666C
100
AcDbEntity
  8
标注
100
AcDbBlockReference
  2
*U96
 10
0.0
 20
0.0
 30
0.0
  0
POINT
  5
376E
330
666C
100
AcDbEntity
  8
DEFPOINTS
 62
     0
100
AcDbPoint
 10
140436.2003195284
 20
-70115.39641384532
 30
0.0
  0
POINT
  5
376F
330
666C
100
AcDbEntity
  8
DEFPOINTS
 62
     0
100
AcDbPoint
 10
140428.3281467178
 20
-70230.39641384529
 30
0.0
  0
POINT
  5
3770
330
666C
100
AcDbEntity
  8
DEFPOINTS
 62
     0
100
AcDbPoint
 10
140449.6386378931
 20
-70230.39641384529
 30
0.0
  0
ENDBLK
  5
3771
330
666C
100
AcDbEntity
  8
0
100
AcDbBlockEnd
  0
BLOCK
  5
666F
330
666E
100
AcDbEntity
  8
0
100
AcDbBlockBegin
  2
*U96
 70
     1
 10
0.0
 20
0.0
 30
0.0
  3
*U96
  1

  0
TEXT
  5
5A71
330
666E
100
AcDbEntity
  8
标注
100
AcDbText
 10
140457.6386378931
 20
-70285.46308051197
 30
0.0
 40
16.0
  1
115
 50
90.0
100
AcDbText
  0
ENDBLK
  5
5A73
330
666E
100
AcDbEntity
  8
0
100
AcDbBlockEnd
  0
BLOCK
  5
6671
330
6670
100
AcDbEntity
  8
0
100
AcDbBlockBegin
  2
*D97
 70
     1
 10
0.0
 20
0.0
 30
0.0
  3
*D97
  1

  0
LINE
  5
3774
330
6670
100
AcDbEntity
  8
标注
100
AcDbLine
 10
140140.6943552005
 20
-71345.23982618945
 30
0.0
 11
140140.6943552005
 21
-71384.523738156
 31
0.0
  0
LINE
  5
3775
330
6670
100
AcDbEntity
  8
标注
100
AcDbLine
 10
140906.6943552005
 20
-71345.23982618945
 30
0.0
 11
140906.6943552005
 21
-71384.523738156
 31
0.0
  0
LINE
  5
3776
330
6670
100
AcDbEntity
  8
标注
100
AcDbLine
 10
140156.6943552005
 20
-71376.52373815599
 30
0.0
 11
140490.3103285998
 21
-71376.52373815599
 31
0.0
  0
LINE
  5
3777
330
6670
100
AcDbEntity
  8
标注
100
AcDbLine
 10
140890.6943552005
 20
-71376.52373815599
 30
0.0
 11
140537.8658841554
 21
-71376.52373815599
 31
0.0
  0
SOLID
  5
3778
330
6670
100
AcDbEntity
  8
标注
100
AcDbTrace
 10
140156.6943552005
 20
-71373.85707148931
 30
0.0
 11
140156.6943552005
 21
-71379.19040482264
 31
0.0
 12
140140.6943552005
 22
-71376.52373815599
 32
0.0
 13
140140.6943552005
 23
-71376.52373815599
 33
0.0
  0
SOLID
  5
3779
330
6670
100
AcDbEntity
  8
标注
100
AcDbTrace
 10
140890.6943552005
 20
-71373.85707148931
 30
0.0
 11
140890.6943552005
 21
-71379.19040482264
 31
0.0
 12
140906.6943552005
 22
-71376.52373815599
 32
0.0
 13
140906.6943552005
 23
-71376.52373815599
 33
0.0
  0
INSERT
  5
377A
330
6670
100
AcDbEntity
  8
标注
100
AcDbBlockReference
  2
*U98
 10
0.0
 20
0.0
 30
0.0
  0
POINT
  5
377B
330
6670
100
AcDbEntity
  8
DEFPOINTS
 62
     0
100
AcDbPoint
 10
140140.6943552005
 20
-71325.23982618946
 30
0.0
  0
POINT
  5
377C
330
6670
100
AcDbEntity
  8
DEFPOINTS
 62
     0
100
AcDbPoint
 10
140906.6943552005
 20
-71325.23982618946
 30
0.0
  0
POINT
  5
377D
330
6670
100
AcDbEntity
  8
DEFPOINTS
 62
     0
100
AcDbPoint
 10
140906.6943552005
 20
-71376.52373815599
 30
0.0
  0
ENDBLK
  5
377E
330
6670
100
AcDbEntity
  8
0
100
AcDbBlockEnd
  0
BLOCK
  5
6673
330
6672
100
AcDbEntity
  8
0
100
AcDbBlockBegin
  2
*U98
 70
     1
 10
0.0
 20
0.0
 30
0.0
  3
*U98
  1

  0
TEXT
  5
5A75
330
6672
100
AcDbEntity
  8
标注
100
AcDbText
 10
140492.7547730443
 20
-71384.523738156
 30
0.0
 40
16.0
  1
766
100
AcDbText
  0
ENDBLK
  5
5A77
330
6672
100
AcDbEntity
  8
0
100
AcDbBlockEnd
  0
BLOCK
  5
6675
330
6674
100
AcDbEntity
  8
0
100
AcDbBlockBegin
  2
*D99
 70
     1
 10
0.0
 20
0.0
 30
0.0
  3
*D99
  1

  0
LINE
  5
3781
330
6674
100
AcDbEntity
  8
标注
100
AcDbLine
 10
140926.6943552005
 20
-70914.83982618941
 30
0.0
 11
140972.030841108
 21
-70914.83982618941
 31
0.0
  0
LINE
  5
3782
330
6674
100
AcDbEntity
  8
标注
100
AcDbLine
 10
140926.6943552005
 20
-71325.23982618946
 30
0.0
 11
140972.030841108
 21
-71325.23982618946
 31
0.0
  0
LINE
  5
3783
330
6674
100
AcDbEntity
  8
标注
100
AcDbLine
 10
140964.030841108
 20
-70930.83982618945
 30
0.0
 11
140964.030841108
 21
-71084.39538174501
 31
0.0
  0
LINE
  5
3784
330
6674
100
AcDbEntity
  8
标注
100
AcDbLine
 10
140964.030841108
 20
-71309.23982618946
 30
0.0
 11
140964.030841108
 21
-71155.68427063392
 31
0.0
  0
SOLID
  5
3785
330
6674
100
AcDbEntity
  8
标注
100
AcDbTrace
 10
140961.3641744412
 20
-70930.83982618945
 30
0.0
 11
140966.6975077746
 21
-70930.83982618945
 31
0.0
 12
140964.030841108
 22
-70914.83982618941
 32
0.0
 13
140964.030841108
 23
-70914.83982618941
 33
0.0
  0
SOLID
  5
3786
330
6674
100
AcDbEntity
  8
标注
100
AcDbTrace
 10
140961.3641744412
 20
-71309.23982618946
 30
0.0
 11
140966.6975077746
 21
-71309.23982618946
 31
0.0
 12
140964.030841108
 22
-71325.23982618946
 32
0.0
 13
140964.030841108
 23
-71325.23982618946
 33
0.0
  0
INSERT
  5
3787
330
6674
100
AcDbEntity
  8
标注
100
AcDbBlockReference
  2
*U100
 10
0.0
 20
0.0
 30
0.0
  0
POINT
  5
3788
330
6674
100
AcDbEntity
  8
DEFPOINTS
 62
     0
100
AcDbPoint
 10
140906.6943552005
 20
-70914.83982618941
 30
0.0
  0
POINT
  5
3789
330
6674
100
AcDbEntity
  8
DEFPOINTS
 62
     0
100
AcDbPoint
 10
140906.6943552005
 20
-71325.23982618946
 30
0.0
  0
POINT
  5
378A
330
6674
100
AcDbEntity
  8
DEFPOINTS
 62
     0
100
AcDbPoint
 10
140964.030841108
 20
-71325.23982618946
 30
0.0
  0
ENDBLK
  5
378B
330
6674
100
AcDbEntity
  8
0
100
AcDbBlockEnd
  0
BLOCK
  5
6677
330
6676
100
AcDbEntity
  8
0
100
AcDbBlockBegin
  2
*U100
 70
     1
 10
0.0
 20
0.0
 30
0.0
  3
*U100
  1

  0
TEXT
  5
5A79
330
6676
100
AcDbEntity
  8
标注
100
AcDbText
 10
140970.6975077746
 20
-71149.37315952276
 30
0.0
 40
16.0
  1
410,4
 50
90.0
100
AcDbText
  0
ENDBLK
  5
5A7B
330
6676
100
AcDbEntity
  8
0
100
AcDbBlockEnd
  0
BLOCK
  5
6679
330
6678
100
AcDbEntity
  8
0
100
AcDbBlockBegin
  2
*U101
 70
     1
 10
0.0
 20
0.0
 30
0.0
  3
*U101
  1

  0
CIRCLE
  5
5A7D
330
6678
100
AcDbEntity
  8
0
100
AcDbCircle
 10
209.5500341232983
 20
1157.784824837741
 30
0.0
 40
58.0
  0
ENDBLK
  5
5A7F
330
6678
100
AcDbEntity
  8
0
100
AcDbBlockEnd
  0
BLOCK
  5
667B
330
667A
100
AcDbEntity
  8
0
100
AcDbBlockBegin
  2
*U102
 70
     1
 10
0.0
 20
0.0
 30
0.0
  3
*U102
  1

  0
CIRCLE
  5
5A81
330
667A
100
AcDbEntity
  8
0
100
AcDbCircle
 10
603.2500341233972
 20
1157.784824837741
 30
0.0
 40
58.0
  0
ENDBLK
  5
5A83
330
667A
100
AcDbEntity
  8
0
100
AcDbBlockEnd
  0
BLOCK
  5
667D
330
667C
100
AcDbEntity
  8
0
100
AcDbBlockBegin
  2
*U103
 70
     1
 10
0.0
 20
0.0
 30
0.0
  3
*U103
  1

  0
TEXT
  5
5A9D
330
667C
100
AcDbEntity
  8
标注
100
AcDbText
 10
667.3150161726923
 20
144.7093337218688
 30
0.0
 40
0.65
  1
14 1/2"
100
AcDbText
  0
ENDBLK
  5
5A9F
330
667C
100
AcDbEntity
  8
0
100
AcDbBlockEnd
  0
BLOCK
  5
667F
330
667E
100
AcDbEntity
  8
0
100
AcDbBlockBegin
  2
*U104
 70
     1
 10
0.0
 20
0.0
 30
0.0
  3
*U104
  1

  0
TEXT
  5
5AA1
330
667E
100
AcDbEntity
  8
标注
100
AcDbText
 10
682.8150161726341
 20
144.7093337218688
 30
0.0
 40
0.65
  1
14 1/2"
100
AcDbText
  0
ENDBLK
  5
5AA3
330
667E
100
AcDbEntity
  8
0
100
AcDbBlockEnd
  0
BLOCK
  5
6681
330
6680
100
AcDbEntity
  8
0
100
AcDbBlockBegin
  2
*U105
 70
     1
 10
0.0
 20
0.0
 30
0.0
  3
*U105
  1

  0
TEXT
  5
5AA5
330
6680
100
AcDbEntity
  8
标注
100
AcDbText
 10
676.1483495059966
 20
143.0748221889659
 30
0.0
 40
0.65
  1
32"
100
AcDbText
  0
ENDBLK
  5
5AA7
330
6680
100
AcDbEntity
  8
0
100
AcDbBlockEnd
  0
BLOCK
  5
6683
330
6682
100
AcDbEntity
  8
0
100
AcDbBlockBegin
  2
*U106
 70
     1
 10
0.0
 20
0.0
 30
0.0
  3
*U106
  1

  0
TEXT
  5
5A99
330
6682
100
AcDbEntity
  8
标注
100
AcDbText
 10
694.6897467488573
 20
155.0365086148336
 30
0.0
 40
0.65
  1
16"
 50
90.0
100
AcDbText
  0
ENDBLK
  5
5A9B
330
6682
100
AcDbEntity
  8
0
100
AcDbBlockEnd
  0
BLOCK
  5
6685
330
6684
100
AcDbEntity
  8
0
100
AcDbBlockBegin
  2
*U107
 70
     1
 10
0.0
 20
0.0
 30
0.0
  3
*U107
  1

  0
TEXT
  5
5A8D
330
6684
100
AcDbEntity
  8
标注
100
AcDbText
 10
696.0721402188478
 20
155.0365086148336
 30
0.0
 40
0.65
  1
18"
 50
90.0
100
AcDbText
  0
ENDBLK
  5
5A8F
330
6684
100
AcDbEntity
  8
0
100
AcDbBlockEnd
  0
BLOCK
  5
6687
330
6686
100
AcDbEntity
  8
0
100
AcDbBlockBegin
  2
*U108
 70
     1
 10
0.0
 20
0.0
 30
0.0
  3
*U108
  1

  0
TEXT
  5
5A91
330
6686
100
AcDbEntity
  8
标注
100
AcDbText
 10
675.014117920872
 20
113.133839752058
 30
0.0
 40
0.65
  1
30 1/8"
100
AcDbText
  0
ENDBLK
  5
5A93
330
6686
100
AcDbEntity
  8
0
100
AcDbBlockEnd
  0
BLOCK
  5
6689
330
6688
100
AcDbEntity
  8
0
100
AcDbBlockBegin
  2
*U109
 70
     1
 10
0.0
 20
0.0
 30
0.0
  3
*U109
  1

  0
TEXT
  5
5A95
330
6688
100
AcDbEntity
  8
标注
100
AcDbText
 10
694.5609919851871
 20
122.2919516985225
 30
0.0
 40
0.65
  1
16 1/8"
 50
90.0
100
AcDbText
  0
ENDBLK
  5
5A97
330
6688
100
AcDbEntity
  8
0
100
AcDbBlockEnd
  0
BLOCK
  5
668B
330
668A
100
AcDbEntity
  8
0
100
AcDbBlockBegin
  2
*U110
 70
     1
 10
0.0
 20
0.0
 30
0.0
  3
*U110
  1

  0
TEXT
  5
5AA9
330
668A
100
AcDbEntity
  8
标注
100
AcDbText
 10
694.9244095175836
 20
178.6078554590912
 30
0.0
 40
0.65
  1
10"
 50
90.0
100
AcDbText
  0
ENDBLK
  5
5AAB
330
668A
100
AcDbEntity
  8
0
100
AcDbBlockEnd
  0
BLOCK
  5
668D
330
668C
100
AcDbEntity
  8
0
100
AcDbBlockBegin
  2
*U111
 70
     1
 10
0.0
 20
0.0
 30
0.0
  3
*U111
  1

  0
TEXT
  5
5AAD
330
668C
100
AcDbEntity
  8
标注
100
AcDbText
 10
659.5389561610759
 20
178.6078554590912
 30
0.0
 40
0.65
  1
10"
 50
90.0
100
AcDbText
  0
ENDBLK
  5
5AAF
330
668C
100
AcDbEntity
  8
0
100
AcDbBlockEnd
  0
BLOCK
  5
668F
330
668E
100
AcDbEntity
  8
0
100
AcDbBlockBegin
  2
*U112
 70
     1
 10
0.0
 20
0.0
 30
0.0
  3
*U112
  1

  0
TEXT
  5
5AB9
330
668E
100
AcDbEntity
  8
标注
100
AcDbText
 10
716.8198626789767
 20
145.2768508350317
 30
0.0
 40
0.65
  1
14 1/2"
100
AcDbText
  0
ENDBLK
  5
5ABB
330
668E
100
AcDbEntity
  8
0
100
AcDbBlockEnd
  0
BLOCK
  5
6691
330
6690
100
AcDbEntity
  8
0
100
AcDbBlockBegin
  2
*U113
 70
     1
 10
0.0
 20
0.0
 30
0.0
  3
*U113
  1

  0
TEXT
  5
5ABD
330
6690
100
AcDbEntity
  8
标注
100
AcDbText
 10
732.3198626789181
 20
145.2768508350317
 30
0.0
 40
0.65
  1
14 1/2"
100
AcDbText
  0
ENDBLK
  5
5ABF
330
6690
100
AcDbEntity
  8
0
100
AcDbBlockEnd
  0
BLOCK
  5
6693
330
6692
100
AcDbEntity
  8
0
100
AcDbBlockBegin
  2
*U114
 70
     1
 10
0.0
 20
0.0
 30
0.0
  3
*U114
  1

  0
TEXT
  5
5AC1
330
6692
100
AcDbEntity
  8
标注
100
AcDbText
 10
725.6531960122812
 20
143.5726581666713
 30
0.0
 40
0.65
  1
32"
100
AcDbText
  0
ENDBLK
  5
5AC3
330
6692
100
AcDbEntity
  8
0
100
AcDbBlockEnd
  0
BLOCK
  5
6695
330
6694
100
AcDbEntity
  8
0
100
AcDbBlockBegin
  2
*U115
 70
     1
 10
0.0
 20
0.0
 30
0.0
  3
*U115
  1

  0
TEXT
  5
5AC5
330
6694
100
AcDbEntity
  8
标注
100
AcDbText
 10
744.1497572866023
 20
155.4028219508832
 30
0.0
 40
0.65
  1
16"
 50
90.0
100
AcDbText
  0
ENDBLK
  5
5AC7
330
6694
100
AcDbEntity
  8
0
100
AcDbBlockEnd
  0
BLOCK
  5
6697
330
6696
100
AcDbEntity
  8
0
100
AcDbBlockBegin
  2
*U116
 70
     1
 10
0.0
 20
0.0
 30
0.0
  3
*U116
  1

  0
TEXT
  5
5AC9
330
6696
100
AcDbEntity
  8
标注
100
AcDbText
 10
745.4250013138252
 20
155.4028219508832
 30
0.0
 40
0.65
  1
18"
 50
90.0
100
AcDbText
  0
ENDBLK
  5
5ACB
330
6696
100
AcDbEntity
  8
0
100
AcDbBlockEnd
  0
BLOCK
  5
6699
330
6698
100
AcDbEntity
  8
0
100
AcDbBlockBegin
  2
*U117
 70
     1
 10
0.0
 20
0.0
 30
0.0
  3
*U117
  1

  0
TEXT
  5
5ACD
330
6698
100
AcDbEntity
  8
标注
100
AcDbText
 10
744.5901617942537
 20
179.4279501812136
 30
0.0
 40
0.65
  1
9"
 50
90.0
100
AcDbText
  0
ENDBLK
  5
5ACF
330
6698
100
AcDbEntity
  8
0
100
AcDbBlockEnd
  0
BLOCK
  5
669B
330
669A
100
AcDbEntity
  8
0
100
AcDbBlockBegin
  2
*U118
 70
     1
 10
0.0
 20
0.0
 30
0.0
  3
*U118
  1

  0
TEXT
  5
5AD1
330
669A
100
AcDbEntity
  8
标注
100
AcDbText
 10
708.8828968969457
 20
179.4279501812136
 30
0.0
 40
0.65
  1
9"
 50
90.0
100
AcDbText
  0
ENDBLK
  5
5AD3
330
669A
100
AcDbEntity
  8
0
100
AcDbBlockEnd
  0
BLOCK
  5
669D
330
669C
100
AcDbEntity
  8
0
100
AcDbBlockBegin
  2
*U119
 70
     1
 10
0.0
 20
0.0
 30
0.0
  3
*U119
  1

  0
TEXT
  5
5AD5
330
669C
100
AcDbEntity
  8
标注
100
AcDbText
 10
724.5860525215219
 20
111.0788429126005
 30
0.0
 40
0.65
  1
30 1/8"
100
AcDbText
  0
ENDBLK
  5
5AD7
330
669C
100
AcDbEntity
  8
0
100
AcDbBlockEnd
  0
BLOCK
  5
669F
330
669E
100
AcDbEntity
  8
0
100
AcDbBlockBegin
  2
*U120
 70
     1
 10
0.0
 20
0.0
 30
0.0
  3
*U120
  1

  0
TEXT
  5
5AD9
330
669E
100
AcDbEntity
  8
标注
100
AcDbText
 10
744.3104393771537
 20
120.1415129101939
 30
0.0
 40
0.65
  1
16 1/8"
 50
90.0
100
AcDbText
  0
ENDBLK
  5
5ADB
330
669E
100
AcDbEntity
  8
0
100
AcDbBlockEnd
  0
BLOCK
  5
66A1
330
66A0
100
AcDbEntity
  8
0
100
AcDbBlockBegin
  2
*U121
 70
     1
 10
0.0
 20
0.0
 30
0.0
  3
*U121
  1

  0
TEXT
  5
5AE1
330
66A0
100
AcDbEntity
  8
标注
100
AcDbText
 10
785.1180975656149
 20
144.7974815028421
 30
0.0
 40
0.65
  1
27"
100
AcDbText
  0
ENDBLK
  5
5AE3
330
66A0
100
AcDbEntity
  8
0
100
AcDbBlockEnd
  0
BLOCK
  5
66A3
330
66A2
100
AcDbEntity
  8
0
100
AcDbBlockBegin
  2
*U122
 70
     1
 10
0.0
 20
0.0
 30
0.0
  3
*U122
  1

  0
TEXT
  5
5AE5
330
66A2
100
AcDbEntity
  8
标注
100
AcDbText
 10
783.8180975656222
 20
143.2368117412202
 30
0.0
 40
0.65
  1
29 3/4"
100
AcDbText
  0
ENDBLK
  5
5AE7
330
66A2
100
AcDbEntity
  8
0
100
AcDbBlockEnd
  0
BLOCK
  5
66A5
330
66A4
100
AcDbEntity
  8
0
100
AcDbBlockBegin
  2
*U123
 70
     1
 10
0.0
 20
0.0
 30
0.0
  3
*U123
  1

  0
TEXT
  5
5AED
330
66A4
100
AcDbEntity
  8
标注
100
AcDbText
 10
802.8206565969908
 20
157.0783425275064
 30
0.0
 40
0.65
  1
16"
 50
90.0
100
AcDbText
  0
ENDBLK
  5
5AEF
330
66A4
100
AcDbEntity
  8
0
100
AcDbBlockEnd
  0
BLOCK
  5
66A7
330
66A6
100
AcDbEntity
  8
0
100
AcDbBlockBegin
  2
*U124
 70
     1
 10
0.0
 20
0.0
 30
0.0
  3
*U124
  1

  0
TEXT
  5
5AE9
330
66A6
100
AcDbEntity
  8
标注
100
AcDbText
 10
804.1538837056556
 20
157.0911228365653
 30
0.0
 40
0.65
  1
20"
 50
90.0
100
AcDbText
  0
ENDBLK
  5
5AEB
330
66A6
100
AcDbEntity
  8
0
100
AcDbBlockEnd
  0
BLOCK
  5
66A9
330
66A8
100
AcDbEntity
  8
0
100
AcDbBlockBegin
  2
*U125
 70
     1
 10
0.0
 20
0.0
 30
0.0
  3
*U125
  1

  0
TEXT
  5
5AF1
330
66A8
100
AcDbEntity
  8
标注
100
AcDbText
 10
770.2698888579025
 20
146.7733437447104
 30
0.0
 40
0.65
  1
R5/8"
 50
52.95384234223546
100
AcDbText
  0
ENDBLK
  5
5AF3
330
66A8
100
AcDbEntity
  8
0
100
AcDbBlockEnd
  0
BLOCK
  5
66AB
330
66AA
100
AcDbEntity
  8
0
100
AcDbBlockBegin
  2
*U126
 70
     1
 10
0.0
 20
0.0
 30
0.0
  3
*U126
  1

  0
TEXT
  5
5AF5
330
66AA
100
AcDbEntity
  8
标注
100
AcDbText
 10
773.5964908507277
 20
151.6181773089391
 30
0.0
 40
0.65
  1
R5/8"
 50
68.97839064410817
100
AcDbText
  0
ENDBLK
  5
5AF7
330
66AA
100
AcDbEntity
  8
0
100
AcDbBlockEnd
  0
BLOCK
  5
66AD
330
66AC
100
AcDbEntity
  8
0
100
AcDbBlockBegin
  2
*U127
 70
     1
 10
0.0
 20
0.0
 30
0.0
  3
*U127
  1

  0
TEXT
  5
5B05
330
66AC
100
AcDbEntity
  8
标注
100
AcDbText
 10
783.1846670071691
 20
110.1229921804537
 30
0.0
 40
0.65
  1
27 1/8"
100
AcDbText
  0
ENDBLK
  5
5B07
330
66AC
100
AcDbEntity
  8
0
100
AcDbBlockEnd
  0
BLOCK
  5
66AF
330
66AE
100
AcDbEntity
  8
0
100
AcDbBlockBegin
  2
*U128
 70
     1
 10
0.0
 20
0.0
 30
0.0
  3
*U128
  1

  0
TEXT
  5
5B01
330
66AE
100
AcDbEntity
  8
标注
100
AcDbText
 10
801.2076050903985
 20
120.0175388964576
 30
0.0
 40
0.65
  1
18 3/4"
 50
90.0
100
AcDbText
  0
ENDBLK
  5
5B03
330
66AE
100
AcDbEntity
  8
0
100
AcDbBlockEnd
  0
BLOCK
  5
66B1
330
66B0
100
AcDbEntity
  8
0
100
AcDbBlockBegin
  2
*U129
 70
     1
 10
0.0
 20
0.0
 30
0.0
  3
*U129
  1

  0
TEXT
  5
5AF9
330
66B0
100
AcDbEntity
  8
标注
100
AcDbText
 10
803.0892991330794
 20
180.0525456687705
 30
0.0
 40
0.65
  1
9"
 50
90.0
100
AcDbText
  0
ENDBLK
  5
5AFB
330
66B0
100
AcDbEntity
  8
0
100
AcDbBlockEnd
  0
BLOCK
  5
66B3
330
66B2
100
AcDbEntity
  8
0
100
AcDbBlockBegin
  2
*U130
 70
     1
 10
0.0
 20
0.0
 30
0.0
  3
*U130
  1

  0
TEXT
  5
5AFD
330
66B2
100
AcDbEntity
  8
标注
100
AcDbText
 10
804.7546857346045
 20
179.3929921763766
 30
0.0
 40
0.65
  1
10"
 50
90.0
100
AcDbText
  0
ENDBLK
  5
5AFF
330
66B2
100
AcDbEntity
  8
0
100
AcDbBlockEnd
  0
BLOCK
  5
66B5
330
66B4
100
AcDbEntity
  8
0
100
AcDbBlockBegin
  2
*U131
 70
     1
 10
0.0
 20
0.0
 30
0.0
  3
*U131
  1

  0
TEXT
  5
5B0D
330
66B4
100
AcDbEntity
  8
标注
100
AcDbText
 10
849.7845789118962
 20
178.9931557736774
 30
0.0
 40
0.65
  1
8"
 50
90.0
100
AcDbText
  0
ENDBLK
  5
5B0F
330
66B4
100
AcDbEntity
  8
0
100
AcDbBlockEnd
  0
BLOCK
  5
66B7
330
66B6
100
AcDbEntity
  8
0
100
AcDbBlockBegin
  2
*U132
 70
     1
 10
0.0
 20
0.0
 30
0.0
  3
*U132
  1

  0
TEXT
  5
5B11
330
66B6
100
AcDbEntity
  8
标注
100
AcDbText
 10
851.2500995800023
 20
178.9229620319425
 30
0.0
 40
0.65
  1
9"
 50
90.0
100
AcDbText
  0
ENDBLK
  5
5B13
330
66B6
100
AcDbEntity
  8
0
100
AcDbBlockEnd
  0
BLOCK
  5
66B9
330
66B8
100
AcDbEntity
  8
0
100
AcDbBlockBegin
  2
*U133
 70
     1
 10
0.0
 20
0.0
 30
0.0
  3
*U133
  1

  0
TEXT
  5
5B15
330
66B8
100
AcDbEntity
  8
标注
100
AcDbText
 10
832.0793011017487
 20
143.2158698333193
 30
0.0
 40
0.65
  1
27"
100
AcDbText
  0
ENDBLK
  5
5B17
330
66B8
100
AcDbEntity
  8
0
100
AcDbBlockEnd
  0
BLOCK
  5
66BB
330
66BA
100
AcDbEntity
  8
0
100
AcDbBlockBegin
  2
*U134
 70
     1
 10
0.0
 20
0.0
 30
0.0
  3
*U134
  1

  0
TEXT
  5
5B2D
330
66BA
100
AcDbEntity
  8
标注
100
AcDbText
 10
830.7793011017121
 20
141.7113267092947
 30
0.0
 40
0.65
  1
29 3/4"
100
AcDbText
  0
ENDBLK
  5
5B2F
330
66BA
100
AcDbEntity
  8
0
100
AcDbBlockEnd
  0
BLOCK
  5
66BD
330
66BC
100
AcDbEntity
  8
0
100
AcDbBlockBegin
  2
*U135
 70
     1
 10
0.0
 20
0.0
 30
0.0
  3
*U135
  1

  0
TEXT
  5
5B19
330
66BC
100
AcDbEntity
  8
标注
100
AcDbText
 10
849.4502137019832
 20
155.6885242586174
 30
0.0
 40
0.65
  1
16"
 50
90.0
100
AcDbText
  0
ENDBLK
  5
5B1B
330
66BC
100
AcDbEntity
  8
0
100
AcDbBlockEnd
  0
BLOCK
  5
66BF
330
66BE
100
AcDbEntity
  8
0
100
AcDbBlockBegin
  2
*U136
 70
     1
 10
0.0
 20
0.0
 30
0.0
  3
*U136
  1

  0
TEXT
  5
5B1D
330
66BE
100
AcDbEntity
  8
标注
100
AcDbText
 10
850.7690431941021
 20
155.6861653878678
 30
0.0
 40
0.65
  1
20"
 50
90.0
100
AcDbText
  0
ENDBLK
  5
5B1F
330
66BE
100
AcDbEntity
  8
0
100
AcDbBlockEnd
  0
BLOCK
  5
66C1
330
66C0
100
AcDbEntity
  8
0
100
AcDbBlockBegin
  2
*U137
 70
     1
 10
0.0
 20
0.0
 30
0.0
  3
*U137
  1

  0
TEXT
  5
5B21
330
66C0
100
AcDbEntity
  8
标注
100
AcDbText
 10
849.4502137019832
 20
167.3385242585774
 30
0.0
 40
0.65
  1
1 1/2"
 50
90.0
100
AcDbText
  0
ENDBLK
  5
5B23
330
66C0
100
AcDbEntity
  8
0
100
AcDbBlockEnd
  0
BLOCK
  5
66C3
330
66C2
100
AcDbEntity
  8
0
100
AcDbBlockBegin
  2
*U138
 70
     1
 10
0.0
 20
0.0
 30
0.0
  3
*U138
  1

  0
TEXT
  5
5B39
330
66C2
100
AcDbEntity
  8
标注
100
AcDbText
 10
830.8876344350817
 20
111.3931151706497
 30
0.0
 40
0.65
  1
27 1/8"
100
AcDbText
  0
ENDBLK
  5
5B3B
330
66C2
100
AcDbEntity
  8
0
100
AcDbBlockEnd
  0
BLOCK
  5
66C5
330
66C4
100
AcDbEntity
  8
0
100
AcDbBlockBegin
  2
*U139
 70
     1
 10
0.0
 20
0.0
 30
0.0
  3
*U139
  1

  0
TEXT
  5
5B35
330
66C4
100
AcDbEntity
  8
标注
100
AcDbText
 10
848.9240133961276
 20
121.0923696902393
 30
0.0
 40
0.65
  1
18 3/4"
 50
90.0
100
AcDbText
  0
ENDBLK
  5
5B37
330
66C4
100
AcDbEntity
  8
0
100
AcDbBlockEnd
  0
BLOCK
  5
66C7
330
66C6
100
AcDbEntity
  8
0
100
AcDbBlockBegin
  2
*U140
 70
     1
 10
0.0
 20
0.0
 30
0.0
  3
*U140
  1

  0
TEXT
  5
5B3D
330
66C6
100
AcDbEntity
  8
标注
100
AcDbText
 10
820.6596000600811
 20
149.559639533733
 30
0.0
 40
0.65
  1
R5/8"
 50
60.42616042690458
100
AcDbText
  0
ENDBLK
  5
5B3F
330
66C6
100
AcDbEntity
  8
0
100
AcDbBlockEnd
  0
BLOCK
  5
66C9
330
66C8
100
AcDbEntity
  8
0
100
AcDbBlockBegin
  2
*D141
 70
     1
 10
0.0
 20
0.0
 30
0.0
  3
*D141
  1

  0
LINE
  5
559D
330
66C8
100
AcDbEntity
  8
标注
  6
ByBlock
100
AcDbLine
 10
864.2595866754941
 20
147.4915169218212
 30
0.0
 11
864.2595866754941
 21
144.0380598911246
 31
0.0
  0
LINE
  5
559E
330
66C8
100
AcDbEntity
  8
标注
  6
ByBlock
100
AcDbLine
 10
891.38576777775
 20
147.4915169218212
 30
0.0
 11
891.38576777775
 21
144.0380598911246
 31
0.0
  0
LINE
  5
559F
330
66C8
100
AcDbEntity
  8
标注
  6
ByBlock
100
AcDbLine
 10
864.909586675494
 20
144.3580598911245
 30
0.0
 11
875.6726772266221
 21
144.3580598911245
 31
0.0
  0
LINE
  5
55A0
330
66C8
100
AcDbEntity
  8
标注
  6
ByBlock
100
AcDbLine
 10
890.7357677777497
 20
144.3580598911245
 30
0.0
 11
879.9726772266215
 21
144.3580598911245
 31
0.0
  0
SOLID
  5
55A1
330
66C8
100
AcDbEntity
  8
标注
100
AcDbTrace
 10
864.909586675494
 20
144.4663932244579
 30
0.0
 11
864.909586675494
 21
144.2497265577913
 31
0.0
 12
864.2595866754941
 22
144.3580598911245
 32
0.0
 13
864.2595866754941
 23
144.3580598911245
 33
0.0
  0
SOLID
  5
55A2
330
66C8
100
AcDbEntity
  8
标注
100
AcDbTrace
 10
890.7357677777497
 20
144.4663932244579
 30
0.0
 11
890.7357677777497
 21
144.2497265577913
 31
0.0
 12
891.38576777775
 22
144.3580598911245
 32
0.0
 13
891.38576777775
 23
144.3580598911245
 33
0.0
  0
INSERT
  5
55A3
330
66C8
100
AcDbEntity
  8
标注
100
AcDbBlockReference
  2
*U142
 10
0.0
 20
0.0
 30
0.0
  0
POINT
  5
55A4
330
66C8
100
AcDbEntity
  8
DEFPOINTS
 62
     0
100
AcDbPoint
 10
864.2595866754941
 20
148.3715169218212
 30
0.0
  0
POINT
  5
55A5
330
66C8
100
AcDbEntity
  8
DEFPOINTS
 62
     0
100
AcDbPoint
 10
891.38576777775
 20
148.3715169218212
 30
0.0
  0
POINT
  5
55A6
330
66C8
100
AcDbEntity
  8
DEFPOINTS
 62
     0
100
AcDbPoint
 10
891.38576777775
 20
144.3580598911245
 30
0.0
  0
ENDBLK
  5
5591
330
66C8
100
AcDbEntity
  8
0
100
AcDbBlockEnd
  0
BLOCK
  5
66CB
330
66CA
100
AcDbEntity
  8
0
100
AcDbBlockBegin
  2
*U142
 70
     1
 10
0.0
 20
0.0
 30
0.0
  3
*U142
  1

  0
TEXT
  5
5B49
330
66CA
100
AcDbEntity
  8
标注
100
AcDbText
 10
875.8726772266221
 20
144.0330598911246
 30
0.0
 40
0.65
  1
27 1/8"
100
AcDbText
  0
ENDBLK
  5
5B4B
330
66CA
100
AcDbEntity
  8
0
100
AcDbBlockEnd
  0
BLOCK
  5
66CD
330
66CC
100
AcDbEntity
  8
0
100
AcDbBlockBegin
  2
*D143
 70
     1
 10
0.0
 20
0.0
 30
0.0
  3
*D143
  1

  0
LINE
  5
55B7
330
66CC
100
AcDbEntity
  8
标注
  6
ByBlock
100
AcDbLine
 10
862.8225788014765
 20
145.7415169218347
 30
0.0
 11
862.8225788014765
 21
142.1197882192636
 31
0.0
  0
LINE
  5
55B8
330
66CC
100
AcDbEntity
  8
标注
  6
ByBlock
100
AcDbLine
 10
892.8227756517527
 20
145.7415169218212
 30
0.0
 11
892.8227756517527
 21
142.1197882192636
 31
0.0
  0
LINE
  5
55B9
330
66CC
100
AcDbEntity
  8
标注
  6
ByBlock
100
AcDbLine
 10
863.4725788014764
 20
142.4397882192636
 30
0.0
 11
876.9185105599481
 21
142.4397882192636
 31
0.0
  0
LINE
  5
55BA
330
66CC
100
AcDbEntity
  8
标注
  6
ByBlock
100
AcDbLine
 10
892.1727756517531
 20
142.4397882192636
 30
0.0
 11
878.7268438932814
 21
142.4397882192636
 31
0.0
  0
SOLID
  5
55BB
330
66CC
100
AcDbEntity
  8
标注
100
AcDbTrace
 10
863.4725788014764
 20
142.5481215525969
 30
0.0
 11
863.4725788014764
 21
142.3314548859303
 31
0.0
 12
862.8225788014765
 22
142.4397882192636
 32
0.0
 13
862.8225788014765
 23
142.4397882192636
 33
0.0
  0
SOLID
  5
55BC
330
66CC
100
AcDbEntity
  8
标注
100
AcDbTrace
 10
892.1727756517531
 20
142.5481215525969
 30
0.0
 11
892.1727756517531
 21
142.3314548859303
 31
0.0
 12
892.8227756517527
 22
142.4397882192636
 32
0.0
 13
892.8227756517527
 23
142.4397882192636
 33
0.0
  0
INSERT
  5
55BD
330
66CC
100
AcDbEntity
  8
标注
100
AcDbBlockReference
  2
*U144
 10
0.0
 20
0.0
 30
0.0
  0
POINT
  5
55BE
330
66CC
100
AcDbEntity
  8
DEFPOINTS
 62
     0
100
AcDbPoint
 10
862.8225788014765
 20
146.6215169218347
 30
0.0
  0
POINT
  5
55BF
330
66CC
100
AcDbEntity
  8
DEFPOINTS
 62
     0
100
AcDbPoint
 10
892.8227756517527
 20
146.6215169218212
 30
0.0
  0
POINT
  5
55C0
330
66CC
100
AcDbEntity
  8
DEFPOINTS
 62
     0
100
AcDbPoint
 10
892.8227756517527
 20
142.4397882192636
 30
0.0
  0
ENDBLK
  5
55AB
330
66CC
100
AcDbEntity
  8
0
100
AcDbBlockEnd
  0
BLOCK
  5
66CF
330
66CE
100
AcDbEntity
  8
0
100
AcDbBlockBegin
  2
*U144
 70
     1
 10
0.0
 20
0.0
 30
0.0
  3
*U144
  1

  0
TEXT
  5
5B4D
330
66CE
100
AcDbEntity
  8
标注
100
AcDbText
 10
877.1185105599483
 20
142.1147882192636
 30
0.0
 40
0.65
  1
30"
100
AcDbText
  0
ENDBLK
  5
5B4F
330
66CE
100
AcDbEntity
  8
0
100
AcDbBlockEnd
  0
BLOCK
  5
66D1
330
66D0
100
AcDbEntity
  8
0
100
AcDbBlockBegin
  2
*D145
 70
     1
 10
0.0
 20
0.0
 30
0.0
  3
*D145
  1

  0
LINE
  5
55D1
330
66D0
100
AcDbEntity
  8
标注
  6
ByBlock
100
AcDbLine
 10
892.2657677777499
 20
148.3715169218212
 30
0.0
 11
894.826778162643
 21
148.3715169218212
 31
0.0
  0
LINE
  5
55D2
330
66D0
100
AcDbEntity
  8
标注
  6
ByBlock
100
AcDbLine
 10
892.2657677777499
 20
164.371516921763
 30
0.0
 11
894.826778162643
 21
164.371516921763
 31
0.0
  0
LINE
  5
55D3
330
66D0
100
AcDbEntity
  8
标注
  6
ByBlock
100
AcDbLine
 10
894.5067781626429
 20
149.0215169218212
 30
0.0
 11
894.5067781626429
 21
155.5215169217921
 31
0.0
  0
LINE
  5
55D4
330
66D0
100
AcDbEntity
  8
标注
  6
ByBlock
100
AcDbLine
 10
894.5067781626429
 20
163.721516921763
 30
0.0
 11
894.5067781626429
 21
157.2215169217921
 31
0.0
  0
SOLID
  5
55D5
330
66D0
100
AcDbEntity
  8
标注
100
AcDbTrace
 10
894.3984448293097
 20
149.0215169218212
 30
0.0
 11
894.6151114959764
 21
149.0215169218212
 31
0.0
 12
894.5067781626429
 22
148.3715169218212
 32
0.0
 13
894.5067781626429
 23
148.3715169218212
 33
0.0
  0
SOLID
  5
55D6
330
66D0
100
AcDbEntity
  8
标注
100
AcDbTrace
 10
894.3984448293097
 20
163.721516921763
 30
0.0
 11
894.6151114959764
 21
163.721516921763
 31
0.0
 12
894.5067781626429
 22
164.371516921763
 32
0.0
 13
894.5067781626429
 23
164.371516921763
 33
0.0
  0
INSERT
  5
55D7
330
66D0
100
AcDbEntity
  8
标注
100
AcDbBlockReference
  2
*U146
 10
0.0
 20
0.0
 30
0.0
  0
POINT
  5
55D8
330
66D0
100
AcDbEntity
  8
DEFPOINTS
 62
     0
100
AcDbPoint
 10
891.38576777775
 20
148.3715169218212
 30
0.0
  0
POINT
  5
55D9
330
66D0
100
AcDbEntity
  8
DEFPOINTS
 62
     0
100
AcDbPoint
 10
891.38576777775
 20
164.371516921763
 30
0.0
  0
POINT
  5
55DA
330
66D0
100
AcDbEntity
  8
DEFPOINTS
 62
     0
100
AcDbPoint
 10
894.5067781626429
 20
164.371516921763
 30
0.0
  0
ENDBLK
  5
55C5
330
66D0
100
AcDbEntity
  8
0
100
AcDbBlockEnd
  0
BLOCK
  5
66D3
330
66D2
100
AcDbEntity
  8
0
100
AcDbBlockBegin
  2
*U146
 70
     1
 10
0.0
 20
0.0
 30
0.0
  3
*U146
  1

  0
TEXT
  5
5B51
330
66D2
100
AcDbEntity
  8
标注
100
AcDbText
 10
894.831778162643
 20
155.7215169217923
 30
0.0
 40
0.65
  1
16"
 50
90.0
100
AcDbText
  0
ENDBLK
  5
5B53
330
66D2
100
AcDbEntity
  8
0
100
AcDbBlockEnd
  0
BLOCK
  5
66D5
330
66D4
100
AcDbEntity
  8
0
100
AcDbBlockBegin
  2
*U147
 70
     1
 10
0.0
 20
0.0
 30
0.0
  3
*U147
  1

  0
TEXT
  5
5B55
330
66D4
100
AcDbEntity
  8
标注
100
AcDbText
 10
896.3350992361611
 20
154.4048502552871
 30
0.0
 40
0.65
  1
19 1/4"
 50
90.0
100
AcDbText
  0
ENDBLK
  5
5B57
330
66D4
100
AcDbEntity
  8
0
100
AcDbBlockEnd
  0
BLOCK
  5
66D7
330
66D6
100
AcDbEntity
  8
0
100
AcDbBlockBegin
  2
*D148
 70
     1
 10
0.0
 20
0.0
 30
0.0
  3
*D148
  1

  0
LINE
  5
5605
330
66D6
100
AcDbEntity
  8
标注
  6
ByBlock
100
AcDbLine
 10
893.7027756517531
 20
174.0621064216848
 30
0.0
 11
894.5965781200223
 21
174.0621064216848
 31
0.0
  0
LINE
  5
5606
330
66D6
100
AcDbEntity
  8
标注
  6
ByBlock
100
AcDbLine
 10
893.7027756517531
 20
183.0621064216557
 30
0.0
 11
894.5965781200223
 21
183.0621064216557
 31
0.0
  0
LINE
  5
5607
330
66D6
100
AcDbEntity
  8
标注
  6
ByBlock
100
AcDbLine
 10
894.2765781200222
 20
174.7121064216848
 30
0.0
 11
894.2765781200222
 21
177.9287730883369
 31
0.0
  0
LINE
  5
5608
330
66D6
100
AcDbEntity
  8
标注
  6
ByBlock
100
AcDbLine
 10
894.2765781200222
 20
182.4121064216557
 30
0.0
 11
894.2765781200222
 21
179.1954397550036
 31
0.0
  0
SOLID
  5
5609
330
66D6
100
AcDbEntity
  8
标注
100
AcDbTrace
 10
894.168244786689
 20
174.7121064216848
 30
0.0
 11
894.3849114533557
 21
174.7121064216848
 31
0.0
 12
894.2765781200222
 22
174.0621064216848
 32
0.0
 13
894.2765781200222
 23
174.0621064216848
 33
0.0
  0
SOLID
  5
560A
330
66D6
100
AcDbEntity
  8
标注
100
AcDbTrace
 10
894.168244786689
 20
182.4121064216557
 30
0.0
 11
894.3849114533557
 21
182.4121064216557
 31
0.0
 12
894.2765781200222
 22
183.0621064216557
 32
0.0
 13
894.2765781200222
 23
183.0621064216557
 33
0.0
  0
INSERT
  5
560B
330
66D6
100
AcDbEntity
  8
标注
100
AcDbBlockReference
  2
*U149
 10
0.0
 20
0.0
 30
0.0
  0
POINT
  5
560C
330
66D6
100
AcDbEntity
  8
DEFPOINTS
 62
     0
100
AcDbPoint
 10
892.8227756517527
 20
174.0621064216848
 30
0.0
  0
POINT
  5
560D
330
66D6
100
AcDbEntity
  8
DEFPOINTS
 62
     0
100
AcDbPoint
 10
892.8227756517527
 20
183.0621064216557
 30
0.0
  0
POINT
  5
560E
330
66D6
100
AcDbEntity
  8
DEFPOINTS
 62
     0
100
AcDbPoint
 10
894.2765781200222
 20
183.0621064216557
 30
0.0
  0
ENDBLK
  5
55F9
330
66D6
100
AcDbEntity
  8
0
100
AcDbBlockEnd
  0
BLOCK
  5
66D9
330
66D8
100
AcDbEntity
  8
0
100
AcDbBlockBegin
  2
*U149
 70
     1
 10
0.0
 20
0.0
 30
0.0
  3
*U149
  1

  0
TEXT
  5
5B59
330
66D8
100
AcDbEntity
  8
标注
100
AcDbText
 10
894.6015781200223
 20
178.1287730883369
 30
0.0
 40
0.65
  1
9"
 50
90.0
100
AcDbText
  0
ENDBLK
  5
5B5B
330
66D8
100
AcDbEntity
  8
0
100
AcDbBlockEnd
  0
BLOCK
  5
66DB
330
66DA
100
AcDbEntity
  8
0
100
AcDbBlockBegin
  2
*D150
 70
     1
 10
0.0
 20
0.0
 30
0.0
  3
*D150
  1

  0
LINE
  5
5648
330
66DA
100
AcDbEntity
  8
标注
  6
ByBlock
100
AcDbLine
 10
893.9235318113768
 20
173.0663850708122
 30
0.0
 11
896.0308148749319
 21
173.0663850708122
 31
0.0
  0
LINE
  5
5649
330
66DA
100
AcDbEntity
  8
标注
  6
ByBlock
100
AcDbLine
 10
893.7027756517531
 20
183.0621064216557
 30
0.0
 11
896.0308148749319
 21
183.0621064216557
 31
0.0
  0
LINE
  5
564A
330
66DA
100
AcDbEntity
  8
标注
  6
ByBlock
100
AcDbLine
 10
895.7108148749322
 20
173.7163850708121
 30
0.0
 11
895.7108148749322
 21
177.2684124129004
 31
0.0
  0
LINE
  5
564B
330
66DA
100
AcDbEntity
  8
标注
  6
ByBlock
100
AcDbLine
 10
895.7108148749322
 20
182.4121064216557
 30
0.0
 11
895.7108148749322
 21
178.8600790795672
 31
0.0
  0
SOLID
  5
564C
330
66DA
100
AcDbEntity
  8
标注
100
AcDbTrace
 10
895.6024815415988
 20
173.7163850708121
 30
0.0
 11
895.8191482082652
 21
173.7163850708121
 31
0.0
 12
895.7108148749322
 22
173.0663850708122
 32
0.0
 13
895.7108148749322
 23
173.0663850708122
 33
0.0
  0
SOLID
  5
564D
330
66DA
100
AcDbEntity
  8
标注
100
AcDbTrace
 10
895.6024815415988
 20
182.4121064216557
 30
0.0
 11
895.8191482082652
 21
182.4121064216557
 31
0.0
 12
895.7108148749322
 22
183.0621064216557
 32
0.0
 13
895.7108148749322
 23
183.0621064216557
 33
0.0
  0
INSERT
  5
564E
330
66DA
100
AcDbEntity
  8
标注
100
AcDbBlockReference
  2
*U151
 10
0.0
 20
0.0
 30
0.0
  0
POINT
  5
564F
330
66DA
100
AcDbEntity
  8
DEFPOINTS
 62
     0
100
AcDbPoint
 10
893.0435318113769
 20
173.0663850708122
 30
0.0
  0
POINT
  5
5650
330
66DA
100
AcDbEntity
  8
DEFPOINTS
 62
     0
100
AcDbPoint
 10
892.8227756517527
 20
183.0621064216557
 30
0.0
  0
POINT
  5
5651
330
66DA
100
AcDbEntity
  8
DEFPOINTS
 62
     0
100
AcDbPoint
 10
895.7108148749322
 20
183.0621064216557
 30
0.0
  0
ENDBLK
  5
5613
330
66DA
100
AcDbEntity
  8
0
100
AcDbBlockEnd
  0
BLOCK
  5
66DD
330
66DC
100
AcDbEntity
  8
0
100
AcDbBlockBegin
  2
*U151
 70
     1
 10
0.0
 20
0.0
 30
0.0
  3
*U151
  1

  0
TEXT
  5
5B5D
330
66DC
100
AcDbEntity
  8
标注
100
AcDbText
 10
896.0358148749319
 20
177.4684124129007
 30
0.0
 40
0.65
  1
10"
 50
90.0
100
AcDbText
  0
ENDBLK
  5
5B5F
330
66DC
100
AcDbEntity
  8
0
100
AcDbBlockEnd
  0
BLOCK
  5
66DF
330
66DE
100
AcDbEntity
  8
0
100
AcDbBlockBegin
  2
*D152
 70
     1
 10
0.0
 20
0.0
 30
0.0
  3
*D152
  1

  0
LINE
  5
5661
330
66DE
100
AcDbEntity
  8
标注
  6
ByBlock
100
AcDbLine
 10
864.1623469929559
 20
109.6322195160093
 30
0.0
 11
864.1623469929559
 21
108.11031524571
 31
0.0
  0
LINE
  5
5662
330
66DE
100
AcDbEntity
  8
标注
  6
ByBlock
100
AcDbLine
 10
891.4460084101676
 20
109.6322195160093
 30
0.0
 11
891.4460084101676
 21
108.11031524571
 31
0.0
  0
LINE
  5
5663
330
66DE
100
AcDbEntity
  8
标注
  6
ByBlock
100
AcDbLine
 10
864.8123469929558
 20
108.43031524571
 30
0.0
 11
875.654177701562
 21
108.43031524571
 31
0.0
  0
LINE
  5
5664
330
66DE
100
AcDbEntity
  8
标注
  6
ByBlock
100
AcDbLine
 10
890.7960084101677
 20
108.43031524571
 30
0.0
 11
879.9541777015619
 21
108.43031524571
 31
0.0
  0
SOLID
  5
5665
330
66DE
100
AcDbEntity
  8
标注
100
AcDbTrace
 10
864.8123469929558
 20
108.5386485790434
 30
0.0
 11
864.8123469929558
 21
108.3219819123767
 31
0.0
 12
864.1623469929559
 22
108.43031524571
 32
0.0
 13
864.1623469929559
 23
108.43031524571
 33
0.0
  0
SOLID
  5
5666
330
66DE
100
AcDbEntity
  8
标注
100
AcDbTrace
 10
890.7960084101677
 20
108.5386485790434
 30
0.0
 11
890.7960084101677
 21
108.3219819123767
 31
0.0
 12
891.4460084101676
 22
108.43031524571
 32
0.0
 13
891.4460084101676
 23
108.43031524571
 33
0.0
  0
INSERT
  5
5667
330
66DE
100
AcDbEntity
  8
标注
100
AcDbBlockReference
  2
*U153
 10
0.0
 20
0.0
 30
0.0
  0
POINT
  5
5668
330
66DE
100
AcDbEntity
  8
DEFPOINTS
 62
     0
100
AcDbPoint
 10
864.1623469929559
 20
110.5122195160093
 30
0.0
  0
POINT
  5
5669
330
66DE
100
AcDbEntity
  8
DEFPOINTS
 62
     0
100
AcDbPoint
 10
891.4460084101676
 20
110.5122195160093
 30
0.0
  0
POINT
  5
566A
330
66DE
100
AcDbEntity
  8
DEFPOINTS
 62
     0
100
AcDbPoint
 10
891.4460084101676
 20
108.43031524571
 30
0.0
  0
ENDBLK
  5
5655
330
66DE
100
AcDbEntity
  8
0
100
AcDbBlockEnd
  0
BLOCK
  5
66E1
330
66E0
100
AcDbEntity
  8
0
100
AcDbBlockBegin
  2
*U153
 70
     1
 10
0.0
 20
0.0
 30
0.0
  3
*U153
  1

  0
TEXT
  5
5B61
330
66E0
100
AcDbEntity
  8
标注
100
AcDbText
 10
875.8541777015617
 20
108.10531524571
 30
0.0
 40
0.65
  1
27 1/4"
100
AcDbText
  0
ENDBLK
  5
5B63
330
66E0
100
AcDbEntity
  8
0
100
AcDbBlockEnd
  0
BLOCK
  5
66E3
330
66E2
100
AcDbEntity
  8
0
100
AcDbBlockBegin
  2
*U154
 70
     1
 10
0.0
 20
0.0
 30
0.0
  3
*U154
  1

  0
TEXT
  5
5B65
330
66E2
100
AcDbEntity
  8
标注
100
AcDbText
 10
893.7077733503086
 20
118.8378591762628
 30
0.0
 40
0.65
  1
18"
 50
90.0
100
AcDbText
  0
ENDBLK
  5
5B67
330
66E2
100
AcDbEntity
  8
0
100
AcDbBlockEnd
  0
BLOCK
  5
66E5
330
66E4
100
AcDbEntity
  8
0
100
AcDbBlockBegin
  2
*U155
 70
     1
 10
0.0
 20
0.0
 30
0.0
  3
*U155
  1

  0
TEXT
  5
5B25
330
66E4
100
AcDbEntity
  8
标注
100
AcDbText
 10
874.338782233174
 20
170.9044087411567
 30
0.0
 40
0.7874015748031497
  1
FRONT VIEW
100
AcDbText
  0
ENDBLK
  5
5B27
330
66E4
100
AcDbEntity
  8
0
100
AcDbBlockEnd
  0
BLOCK
  5
66E7
330
66E6
100
AcDbEntity
  8
0
100
AcDbBlockBegin
  2
*U156
 70
     1
 10
0.0
 20
0.0
 30
0.0
  3
*U156
  1

  0
TEXT
  5
5B29
330
66E6
100
AcDbEntity
  8
标注
100
AcDbText
 10
872.3839287436709
 20
139.1671955263282
 30
0.0
 40
0.7874015748031497
  1
OVERHEAD VIEW
100
AcDbText
  0
ENDBLK
  5
5B2B
330
66E6
100
AcDbEntity
  8
0
100
AcDbBlockEnd
  0
BLOCK
  5
66E9
330
66E8
100
AcDbEntity
  8
0
100
AcDbBlockBegin
  2
*U157
 70
     1
 10
0.0
 20
0.0
 30
0.0
  3
*U157
  1

  0
TEXT
  5
5B31
330
66E8
100
AcDbEntity
  8
标注
100
AcDbText
 10
879.3632960937776
 20
106.0454772909248
 30
0.0
 40
0.7874015748031497
  1
 CUTOUT
100
AcDbText
  0
ENDBLK
  5
5B33
330
66E8
100
AcDbEntity
  8
0
100
AcDbBlockEnd
  0
BLOCK
  5
66EB
330
66EA
100
AcDbEntity
  8
0
100
AcDbBlockBegin
  2
*U158
 70
     1
 10
0.0
 20
0.0
 30
0.0
  3
*U158
  1

  0
CIRCLE
  5
5B45
330
66EA
100
AcDbEntity
  8
0
100
AcDbCircle
 10
877.8226772266148
 20
159.8439578666603
 30
0.0
 40
2.28346456692
  0
ENDBLK
  5
5B47
330
66EA
100
AcDbEntity
  8
0
100
AcDbBlockEnd
  0
BLOCK
  5
66ED
330
66EC
100
AcDbEntity
  8
0
100
AcDbBlockBegin
  2
*U159
 70
     1
 10
0.0
 20
0.0
 30
0.0
  3
*U159
  1

  0
TEXT
  5
5FAC
330
66EC
100
AcDbEntity
  8
标注
 62
     0
100
AcDbText
 10
895.5450992361612
 20
155.7815169217931
 30
0.0
 40
0.18
  1
20.0000
100
AcDbText
  0
ENDBLK
  5
5FAE
330
66EC
100
AcDbEntity
  8
0
100
AcDbBlockEnd
  0
BLOCK
  5
66EF
330
66EE
100
AcDbEntity
  8
0
100
AcDbBlockBegin
  2
*D160
 70
     1
 10
0.0
 20
0.0
 30
0.0
  3
*D160
  1

  0
LINE
  5
644A
330
66EE
100
AcDbEntity
  8
标注
  6
Continuous
 62
     3
100
AcDbLine
 10
878.7026772266143
 20
145.8715169218374
 30
0.0
 11
896.3663353385742
 21
145.8715169218374
 31
0.0
  0
LINE
  5
644B
330
66EE
100
AcDbEntity
  8
标注
  6
Continuous
 62
     3
100
AcDbLine
 10
893.7027756517526
 20
165.8715169217485
 30
0.0
 11
896.3663353385742
 21
165.8715169217485
 31
0.0
  0
LINE
  5
644C
330
66EE
100
AcDbEntity
  8
标注
  6
Continuous
 62
     3
100
AcDbLine
 10
896.0463353385744
 20
146.5215169218374
 30
0.0
 11
896.0463353385744
 21
154.9673502551263
 31
0.0
  0
LINE
  5
644D
330
66EE
100
AcDbEntity
  8
标注
  6
Continuous
 62
     3
100
AcDbLine
 10
896.0463353385744
 20
165.2215169217485
 30
0.0
 11
896.0463353385744
 21
156.7756835884596
 31
0.0
  0
SOLID
  5
644E
330
66EE
100
AcDbEntity
  8
标注
 62
     3
100
AcDbTrace
 10
895.9380020052408
 20
146.5215169218374
 30
0.0
 11
896.1546686719076
 21
146.5215169218374
 31
0.0
 12
896.0463353385744
 22
145.8715169218374
 32
0.0
 13
896.0463353385744
 23
145.8715169218374
 33
0.0
  0
SOLID
  5
644F
330
66EE
100
AcDbEntity
  8
标注
 62
     3
100
AcDbTrace
 10
895.9380020052408
 20
165.2215169217485
 30
0.0
 11
896.1546686719076
 21
165.2215169217485
 31
0.0
 12
896.0463353385744
 22
165.8715169217485
 32
0.0
 13
896.0463353385744
 23
165.8715169217485
 33
0.0
  0
INSERT
  5
6450
330
66EE
100
AcDbEntity
  8
标注
100
AcDbBlockReference
  2
*U161
 10
0.0
 20
0.0
 30
0.0
  0
POINT
  5
6451
330
66EE
100
AcDbEntity
  8
DEFPOINTS
 62
     0
100
AcDbPoint
 10
877.8226772266148
 20
145.8715169218374
 30
0.0
  0
POINT
  5
6452
330
66EE
100
AcDbEntity
  8
DEFPOINTS
 62
     0
100
AcDbPoint
 10
892.8227756517527
 20
165.8715169217485
 30
0.0
  0
POINT
  5
6453
330
66EE
100
AcDbEntity
  8
DEFPOINTS
 62
     0
100
AcDbPoint
 10
896.0463353385744
 20
165.8715169217485
 30
0.0
  0
ENDBLK
  5
6329
330
66EE
100
AcDbEntity
  8
0
100
AcDbBlockEnd
  0
BLOCK
  5
670A
330
66F0
100
AcDbEntity
  8
0
100
AcDbBlockBegin
  2
*U161
 70
     1
 10
0.0
 20
0.0
 30
0.0
  3
*U161
  1

  0
TEXT
  5
6530
330
66F0
100
AcDbEntity
  8
标注
100
AcDbText
 10
896.3713353385744
 20
155.1673502551264
 30
0.0
 40
0.65
  1
20"
 50
90.0
100
AcDbText
  0
ENDBLK
  5
6532
330
66F0
100
AcDbEntity
  8
0
100
AcDbBlockEnd
  0
BLOCK
  5
66F2
330
66F1
100
AcDbEntity
  8
0
100
AcDbBlockBegin
  2
*D162
 70
     1
 10
0.0
 20
0.0
 30
0.0
  3
*D162
  1

  0
LINE
  5
6405
330
66F1
100
AcDbEntity
  8
标注
  6
Continuous
 62
     3
100
AcDbLine
 10
892.3260084101677
 20
110.5122195160093
 30
0.0
 11
893.7027733503091
 21
110.5122195160093
 31
0.0
  0
LINE
  5
6406
330
66F1
100
AcDbEntity
  8
标注
  6
Continuous
 62
     3
100
AcDbLine
 10
892.3260084101677
 20
128.463498836516
 30
0.0
 11
893.7027733503091
 21
128.463498836516
 31
0.0
  0
LINE
  5
6407
330
66F1
100
AcDbEntity
  8
标注
  6
Continuous
 62
     3
100
AcDbLine
 10
893.3827733503093
 20
111.1622195160093
 30
0.0
 11
893.3827733503093
 21
118.6378591762626
 31
0.0
  0
LINE
  5
6408
330
66F1
100
AcDbEntity
  8
标注
  6
Continuous
 62
     3
100
AcDbLine
 10
893.3827733503093
 20
127.813498836516
 30
0.0
 11
893.3827733503093
 21
120.3378591762626
 31
0.0
  0
SOLID
  5
6409
330
66F1
100
AcDbEntity
  8
标注
 62
     3
100
AcDbTrace
 10
893.2744400169754
 20
111.1622195160093
 30
0.0
 11
893.4911066836423
 21
111.1622195160093
 31
0.0
 12
893.3827733503093
 22
110.5122195160093
 32
0.0
 13
893.3827733503093
 23
110.5122195160093
 33
0.0
  0
SOLID
  5
640A
330
66F1
100
AcDbEntity
  8
标注
 62
     3
100
AcDbTrace
 10
893.2744400169754
 20
127.813498836516
 30
0.0
 11
893.4911066836423
 21
127.813498836516
 31
0.0
 12
893.3827733503093
 22
128.463498836516
 32
0.0
 13
893.3827733503093
 23
128.463498836516
 33
0.0
  0
INSERT
  5
640B
330
66F1
100
AcDbEntity
  8
标注
100
AcDbBlockReference
  2
*U163
 10
0.0
 20
0.0
 30
0.0
  0
POINT
  5
640C
330
66F1
100
AcDbEntity
  8
DEFPOINTS
 62
     0
100
AcDbPoint
 10
891.4460084101676
 20
110.5122195160093
 30
0.0
  0
POINT
  5
640D
330
66F1
100
AcDbEntity
  8
DEFPOINTS
 62
     0
100
AcDbPoint
 10
891.4460084101676
 20
128.463498836516
 30
0.0
  0
POINT
  5
640E
330
66F1
100
AcDbEntity
  8
DEFPOINTS
 62
     0
100
AcDbPoint
 10
893.3827733503093
 20
128.463498836516
 30
0.0
  0
ENDBLK
  5
63E6
330
66F1
100
AcDbEntity
  8
0
100
AcDbBlockEnd
  0
BLOCK
  5
6706
330
66F3
100
AcDbEntity
  8
0
100
AcDbBlockBegin
  2
*U163
 70
     1
 10
0.0
 20
0.0
 30
0.0
  3
*U163
  1

  0
TEXT
  5
6520
330
66F3
100
AcDbEntity
  8
标注
100
AcDbText
 10
893.7077733503086
 20
118.8378591762628
 30
0.0
 40
0.65
  1
18"
 50
90.0
100
AcDbText
  0
ENDBLK
  5
6522
330
66F3
100
AcDbEntity
  8
0
100
AcDbBlockEnd
  0
BLOCK
  5
66F5
330
66F4
100
AcDbEntity
  8
0
100
AcDbBlockBegin
  2
*D164
 70
     1
 10
0.0
 20
0.0
 30
0.0
  3
*D164
  1

  0
LINE
  5
6412
330
66F4
100
AcDbEntity
  8
标注
  6
Continuous
 62
     3
100
AcDbLine
 10
864.1623469929559
 20
109.6322195160093
 30
0.0
 11
864.1623469929559
 21
108.11031524571
 31
0.0
  0
LINE
  5
6413
330
66F4
100
AcDbEntity
  8
标注
  6
Continuous
 62
     3
100
AcDbLine
 10
891.4460084101676
 20
109.6322195160093
 30
0.0
 11
891.4460084101676
 21
108.11031524571
 31
0.0
  0
LINE
  5
6414
330
66F4
100
AcDbEntity
  8
标注
  6
Continuous
 62
     3
100
AcDbLine
 10
864.8123469929558
 20
108.43031524571
 30
0.0
 11
875.654177701562
 21
108.43031524571
 31
0.0
  0
LINE
  5
6415
330
66F4
100
AcDbEntity
  8
标注
  6
Continuous
 62
     3
100
AcDbLine
 10
890.7960084101677
 20
108.43031524571
 30
0.0
 11
879.9541777015619
 21
108.43031524571
 31
0.0
  0
SOLID
  5
6416
330
66F4
100
AcDbEntity
  8
标注
 62
     3
100
AcDbTrace
 10
864.8123469929558
 20
108.5386485790433
 30
0.0
 11
864.8123469929558
 21
108.3219819123766
 31
0.0
 12
864.1623469929559
 22
108.43031524571
 32
0.0
 13
864.1623469929559
 23
108.43031524571
 33
0.0
  0
SOLID
  5
6417
330
66F4
100
AcDbEntity
  8
标注
 62
     3
100
AcDbTrace
 10
890.7960084101677
 20
108.5386485790433
 30
0.0
 11
890.7960084101677
 21
108.3219819123766
 31
0.0
 12
891.4460084101676
 22
108.43031524571
 32
0.0
 13
891.4460084101676
 23
108.43031524571
 33
0.0
  0
INSERT
  5
6418
330
66F4
100
AcDbEntity
  8
标注
100
AcDbBlockReference
  2
*U165
 10
0.0
 20
0.0
 30
0.0
  0
POINT
  5
6419
330
66F4
100
AcDbEntity
  8
DEFPOINTS
 62
     0
100
AcDbPoint
 10
864.1623469929559
 20
110.5122195160093
 30
0.0
  0
POINT
  5
641A
330
66F4
100
AcDbEntity
  8
DEFPOINTS
 62
     0
100
AcDbPoint
 10
891.4460084101676
 20
110.5122195160093
 30
0.0
  0
POINT
  5
641B
330
66F4
100
AcDbEntity
  8
DEFPOINTS
 62
     0
100
AcDbPoint
 10
891.4460084101676
 20
108.43031524571
 30
0.0
  0
ENDBLK
  5
6411
330
66F4
100
AcDbEntity
  8
0
100
AcDbBlockEnd
  0
BLOCK
  5
6707
330
66F6
100
AcDbEntity
  8
0
100
AcDbBlockBegin
  2
*U165
 70
     1
 10
0.0
 20
0.0
 30
0.0
  3
*U165
  1

  0
TEXT
  5
6524
330
66F6
100
AcDbEntity
  8
标注
100
AcDbText
 10
875.8541777015617
 20
108.10531524571
 30
0.0
 40
0.65
  1
27 1/4"
100
AcDbText
  0
ENDBLK
  5
6526
330
66F6
100
AcDbEntity
  8
0
100
AcDbBlockEnd
  0
BLOCK
  5
66F8
330
66F7
100
AcDbEntity
  8
0
100
AcDbBlockBegin
  2
*D166
 70
     1
 10
0.0
 20
0.0
 30
0.0
  3
*D166
  1

  0
LINE
  5
6433
330
66F7
100
AcDbEntity
  8
标注
  6
Continuous
 62
     3
100
AcDbLine
 10
862.8225788014765
 20
145.7415169218347
 30
0.0
 11
862.8225788014765
 21
142.1197882192636
 31
0.0
  0
LINE
  5
6434
330
66F7
100
AcDbEntity
  8
标注
  6
Continuous
 62
     3
100
AcDbLine
 10
892.8227756517527
 20
145.7415169218212
 30
0.0
 11
892.8227756517527
 21
142.1197882192636
 31
0.0
  0
LINE
  5
6435
330
66F7
100
AcDbEntity
  8
标注
  6
Continuous
 62
     3
100
AcDbLine
 10
863.4725788014764
 20
142.4397882192636
 30
0.0
 11
876.9185105599477
 21
142.4397882192636
 31
0.0
  0
LINE
  5
6436
330
66F7
100
AcDbEntity
  8
标注
  6
Continuous
 62
     3
100
AcDbLine
 10
892.1727756517526
 20
142.4397882192636
 30
0.0
 11
878.7268438932811
 21
142.4397882192636
 31
0.0
  0
SOLID
  5
6437
330
66F7
100
AcDbEntity
  8
标注
 62
     3
100
AcDbTrace
 10
863.4725788014764
 20
142.5481215525969
 30
0.0
 11
863.4725788014764
 21
142.3314548859302
 31
0.0
 12
862.8225788014765
 22
142.4397882192636
 32
0.0
 13
862.8225788014765
 23
142.4397882192636
 33
0.0
  0
SOLID
  5
6438
330
66F7
100
AcDbEntity
  8
标注
 62
     3
100
AcDbTrace
 10
892.1727756517526
 20
142.5481215525969
 30
0.0
 11
892.1727756517526
 21
142.3314548859302
 31
0.0
 12
892.8227756517527
 22
142.4397882192636
 32
0.0
 13
892.8227756517527
 23
142.4397882192636
 33
0.0
  0
INSERT
  5
6439
330
66F7
100
AcDbEntity
  8
标注
100
AcDbBlockReference
  2
*U167
 10
0.0
 20
0.0
 30
0.0
  0
POINT
  5
643A
330
66F7
100
AcDbEntity
  8
DEFPOINTS
 62
     0
100
AcDbPoint
 10
862.8225788014765
 20
146.6215169218347
 30
0.0
  0
POINT
  5
643B
330
66F7
100
AcDbEntity
  8
DEFPOINTS
 62
     0
100
AcDbPoint
 10
892.8227756517527
 20
146.6215169218212
 30
0.0
  0
POINT
  5
643C
330
66F7
100
AcDbEntity
  8
DEFPOINTS
 62
     0
100
AcDbPoint
 10
892.8227756517527
 20
142.4397882192636
 30
0.0
  0
ENDBLK
  5
641E
330
66F7
100
AcDbEntity
  8
0
100
AcDbBlockEnd
  0
BLOCK
  5
6708
330
66F9
100
AcDbEntity
  8
0
100
AcDbBlockBegin
  2
*U167
 70
     1
 10
0.0
 20
0.0
 30
0.0
  3
*U167
  1

  0
TEXT
  5
6528
330
66F9
100
AcDbEntity
  8
标注
100
AcDbText
 10
877.118510559948
 20
142.1147882192635
 30
0.0
 40
0.65
  1
30"
100
AcDbText
  0
ENDBLK
  5
652A
330
66F9
100
AcDbEntity
  8
0
100
AcDbBlockEnd
  0
BLOCK
  5
66FB
330
66FA
100
AcDbEntity
  8
0
100
AcDbBlockBegin
  2
*D168
 70
     1
 10
0.0
 20
0.0
 30
0.0
  3
*D168
  1

  0
LINE
  5
6440
330
66FA
100
AcDbEntity
  8
标注
  6
Continuous
 62
     3
100
AcDbLine
 10
864.2595866754941
 20
147.4915169218212
 30
0.0
 11
864.2595866754941
 21
144.0380598911245
 31
0.0
  0
LINE
  5
6441
330
66FA
100
AcDbEntity
  8
标注
  6
Continuous
 62
     3
100
AcDbLine
 10
891.38576777775
 20
147.4915169218212
 30
0.0
 11
891.38576777775
 21
144.0380598911245
 31
0.0
  0
LINE
  5
6442
330
66FA
100
AcDbEntity
  8
标注
  6
Continuous
 62
     3
100
AcDbLine
 10
864.909586675494
 20
144.3580598911245
 30
0.0
 11
875.6726772266221
 21
144.3580598911245
 31
0.0
  0
LINE
  5
6443
330
66FA
100
AcDbEntity
  8
标注
  6
Continuous
 62
     3
100
AcDbLine
 10
890.7357677777497
 20
144.3580598911245
 30
0.0
 11
879.9726772266215
 21
144.3580598911245
 31
0.0
  0
SOLID
  5
6444
330
66FA
100
AcDbEntity
  8
标注
 62
     3
100
AcDbTrace
 10
864.909586675494
 20
144.4663932244578
 30
0.0
 11
864.909586675494
 21
144.2497265577912
 31
0.0
 12
864.2595866754941
 22
144.3580598911245
 32
0.0
 13
864.2595866754941
 23
144.3580598911245
 33
0.0
  0
SOLID
  5
6445
330
66FA
100
AcDbEntity
  8
标注
 62
     3
100
AcDbTrace
 10
890.7357677777497
 20
144.4663932244578
 30
0.0
 11
890.7357677777497
 21
144.2497265577912
 31
0.0
 12
891.38576777775
 22
144.3580598911245
 32
0.0
 13
891.38576777775
 23
144.3580598911245
 33
0.0
  0
INSERT
  5
6446
330
66FA
100
AcDbEntity
  8
标注
100
AcDbBlockReference
  2
*U169
 10
0.0
 20
0.0
 30
0.0
  0
POINT
  5
6447
330
66FA
100
AcDbEntity
  8
DEFPOINTS
 62
     0
100
AcDbPoint
 10
864.2595866754941
 20
148.3715169218212
 30
0.0
  0
POINT
  5
6448
330
66FA
100
AcDbEntity
  8
DEFPOINTS
 62
     0
100
AcDbPoint
 10
891.38576777775
 20
148.3715169218212
 30
0.0
  0
POINT
  5
6449
330
66FA
100
AcDbEntity
  8
DEFPOINTS
 62
     0
100
AcDbPoint
 10
891.38576777775
 20
144.3580598911245
 30
0.0
  0
ENDBLK
  5
643F
330
66FA
100
AcDbEntity
  8
0
100
AcDbBlockEnd
  0
BLOCK
  5
6709
330
66FC
100
AcDbEntity
  8
0
100
AcDbBlockBegin
  2
*U169
 70
     1
 10
0.0
 20
0.0
 30
0.0
  3
*U169
  1

  0
TEXT
  5
652C
330
66FC
100
AcDbEntity
  8
标注
100
AcDbText
 10
875.8726772266221
 20
144.0330598911245
 30
0.0
 40
0.65
  1
27 1/8"
100
AcDbText
  0
ENDBLK
  5
652E
330
66FC
100
AcDbEntity
  8
0
100
AcDbBlockEnd
  0
BLOCK
  5
66FE
330
66FD
100
AcDbEntity
  8
0
100
AcDbBlockBegin
  2
*D170
 70
     1
 10
0.0
 20
0.0
 30
0.0
  3
*D170
  1

  0
LINE
  5
6457
330
66FD
100
AcDbEntity
  8
标注
  6
Continuous
 62
     3
100
AcDbLine
 10
892.2657677777499
 20
148.3715169218212
 30
0.0
 11
894.8267781626427
 21
148.3715169218212
 31
0.0
  0
LINE
  5
6458
330
66FD
100
AcDbEntity
  8
标注
  6
Continuous
 62
     3
100
AcDbLine
 10
892.2657677777499
 20
164.371516921763
 30
0.0
 11
894.8267781626427
 21
164.371516921763
 31
0.0
  0
LINE
  5
6459
330
66FD
100
AcDbEntity
  8
标注
  6
Continuous
 62
     3
100
AcDbLine
 10
894.5067781626429
 20
149.0215169218212
 30
0.0
 11
894.5067781626429
 21
155.5215169217921
 31
0.0
  0
LINE
  5
645A
330
66FD
100
AcDbEntity
  8
标注
  6
Continuous
 62
     3
100
AcDbLine
 10
894.5067781626429
 20
163.721516921763
 30
0.0
 11
894.5067781626429
 21
157.2215169217921
 31
0.0
  0
SOLID
  5
645B
330
66FD
100
AcDbEntity
  8
标注
 62
     3
100
AcDbTrace
 10
894.3984448293095
 20
149.0215169218212
 30
0.0
 11
894.6151114959759
 21
149.0215169218212
 31
0.0
 12
894.5067781626429
 22
148.3715169218212
 32
0.0
 13
894.5067781626429
 23
148.3715169218212
 33
0.0
  0
SOLID
  5
645C
330
66FD
100
AcDbEntity
  8
标注
 62
     3
100
AcDbTrace
 10
894.3984448293095
 20
163.721516921763
 30
0.0
 11
894.6151114959759
 21
163.721516921763
 31
0.0
 12
894.5067781626429
 22
164.371516921763
 32
0.0
 13
894.5067781626429
 23
164.371516921763
 33
0.0
  0
INSERT
  5
645D
330
66FD
100
AcDbEntity
  8
标注
100
AcDbBlockReference
  2
*U171
 10
0.0
 20
0.0
 30
0.0
  0
POINT
  5
645E
330
66FD
100
AcDbEntity
  8
DEFPOINTS
 62
     0
100
AcDbPoint
 10
891.38576777775
 20
148.3715169218212
 30
0.0
  0
POINT
  5
645F
330
66FD
100
AcDbEntity
  8
DEFPOINTS
 62
     0
100
AcDbPoint
 10
891.38576777775
 20
164.371516921763
 30
0.0
  0
POINT
  5
6460
330
66FD
100
AcDbEntity
  8
DEFPOINTS
 62
     0
100
AcDbPoint
 10
894.5067781626429
 20
164.371516921763
 30
0.0
  0
ENDBLK
  5
6456
330
66FD
100
AcDbEntity
  8
0
100
AcDbBlockEnd
  0
BLOCK
  5
670B
330
66FF
100
AcDbEntity
  8
0
100
AcDbBlockBegin
  2
*U171
 70
     1
 10
0.0
 20
0.0
 30
0.0
  3
*U171
  1

  0
TEXT
  5
6534
330
66FF
100
AcDbEntity
  8
标注
100
AcDbText
 10
894.8317781626425
 20
155.7215169217922
 30
0.0
 40
0.65
  1
16"
 50
90.0
100
AcDbText
  0
ENDBLK
  5
6536
330
66FF
100
AcDbEntity
  8
0
100
AcDbBlockEnd
  0
BLOCK
  5
6701
330
6700
100
AcDbEntity
  8
0
100
AcDbBlockBegin
  2
*D172
 70
     1
 10
0.0
 20
0.0
 30
0.0
  3
*D172
  1

  0
LINE
  5
6464
330
6700
100
AcDbEntity
  8
标注
  6
Continuous
 62
     3
100
AcDbLine
 10
893.9235318113768
 20
173.0663850708122
 30
0.0
 11
896.0308148749319
 21
173.0663850708122
 31
0.0
  0
LINE
  5
6465
330
6700
100
AcDbEntity
  8
标注
  6
Continuous
 62
     3
100
AcDbLine
 10
893.7027756517526
 20
183.0621064216557
 30
0.0
 11
896.0308148749319
 21
183.0621064216557
 31
0.0
  0
LINE
  5
6466
330
6700
100
AcDbEntity
  8
标注
  6
Continuous
 62
     3
100
AcDbLine
 10
895.7108148749322
 20
173.7163850708121
 30
0.0
 11
895.7108148749322
 21
177.2684124129005
 31
0.0
  0
LINE
  5
6467
330
6700
100
AcDbEntity
  8
标注
  6
Continuous
 62
     3
100
AcDbLine
 10
895.7108148749322
 20
182.4121064216557
 30
0.0
 11
895.7108148749322
 21
178.8600790795672
 31
0.0
  0
SOLID
  5
6468
330
6700
100
AcDbEntity
  8
标注
 62
     3
100
AcDbTrace
 10
895.6024815415988
 20
173.7163850708121
 30
0.0
 11
895.8191482082652
 21
173.7163850708121
 31
0.0
 12
895.7108148749322
 22
173.0663850708122
 32
0.0
 13
895.7108148749322
 23
173.0663850708122
 33
0.0
  0
SOLID
  5
6469
330
6700
100
AcDbEntity
  8
标注
 62
     3
100
AcDbTrace
 10
895.6024815415988
 20
182.4121064216557
 30
0.0
 11
895.8191482082652
 21
182.4121064216557
 31
0.0
 12
895.7108148749322
 22
183.0621064216557
 32
0.0
 13
895.7108148749322
 23
183.0621064216557
 33
0.0
  0
INSERT
  5
646A
330
6700
100
AcDbEntity
  8
标注
100
AcDbBlockReference
  2
*U173
 10
0.0
 20
0.0
 30
0.0
  0
POINT
  5
646B
330
6700
100
AcDbEntity
  8
DEFPOINTS
 62
     0
100
AcDbPoint
 10
893.0435318113769
 20
173.0663850708122
 30
0.0
  0
POINT
  5
646C
330
6700
100
AcDbEntity
  8
DEFPOINTS
 62
     0
100
AcDbPoint
 10
892.8227756517527
 20
183.0621064216557
 30
0.0
  0
POINT
  5
646D
330
6700
100
AcDbEntity
  8
DEFPOINTS
 62
     0
100
AcDbPoint
 10
895.7108148749322
 20
183.0621064216557
 30
0.0
  0
ENDBLK
  5
6463
330
6700
100
AcDbEntity
  8
0
100
AcDbBlockEnd
  0
BLOCK
  5
670C
330
6702
100
AcDbEntity
  8
0
100
AcDbBlockBegin
  2
*U173
 70
     1
 10
0.0
 20
0.0
 30
0.0
  3
*U173
  1

  0
TEXT
  5
6538
330
6702
100
AcDbEntity
  8
标注
100
AcDbText
 10
896.0358148749319
 20
177.4684124129007
 30
0.0
 40
0.65
  1
10"
 50
90.0
100
AcDbText
  0
ENDBLK
  5
653A
330
6702
100
AcDbEntity
  8
0
100
AcDbBlockEnd
  0
BLOCK
  5
6704
330
6703
100
AcDbEntity
  8
0
100
AcDbBlockBegin
  2
*D174
 70
     1
 10
0.0
 20
0.0
 30
0.0
  3
*D174
  1

  0
LINE
  5
6471
330
6703
100
AcDbEntity
  8
标注
  6
Continuous
 62
     3
100
AcDbLine
 10
893.7027756517526
 20
174.0621064216848
 30
0.0
 11
894.5965781200223
 21
174.0621064216848
 31
0.0
  0
LINE
  5
6472
330
6703
100
AcDbEntity
  8
标注
  6
Continuous
 62
     3
100
AcDbLine
 10
893.7027756517526
 20
183.0621064216557
 30
0.0
 11
894.5965781200223
 21
183.0621064216557
 31
0.0
  0
LINE
  5
6473
330
6703
100
AcDbEntity
  8
标注
  6
Continuous
 62
     3
100
AcDbLine
 10
894.2765781200222
 20
174.7121064216848
 30
0.0
 11
894.2765781200222
 21
177.9287730883369
 31
0.0
  0
LINE
  5
6474
330
6703
100
AcDbEntity
  8
标注
  6
Continuous
 62
     3
100
AcDbLine
 10
894.2765781200222
 20
182.4121064216557
 30
0.0
 11
894.2765781200222
 21
179.1954397550036
 31
0.0
  0
SOLID
  5
6475
330
6703
100
AcDbEntity
  8
标注
 62
     3
100
AcDbTrace
 10
894.1682447866886
 20
174.7121064216848
 30
0.0
 11
894.3849114533556
 21
174.7121064216848
 31
0.0
 12
894.2765781200222
 22
174.0621064216848
 32
0.0
 13
894.2765781200222
 23
174.0621064216848
 33
0.0
  0
SOLID
  5
6476
330
6703
100
AcDbEntity
  8
标注
 62
     3
100
AcDbTrace
 10
894.1682447866886
 20
182.4121064216557
 30
0.0
 11
894.3849114533556
 21
182.4121064216557
 31
0.0
 12
894.2765781200222
 22
183.0621064216557
 32
0.0
 13
894.2765781200222
 23
183.0621064216557
 33
0.0
  0
INSERT
  5
6477
330
6703
100
AcDbEntity
  8
标注
100
AcDbBlockReference
  2
*U175
 10
0.0
 20
0.0
 30
0.0
  0
POINT
  5
6478
330
6703
100
AcDbEntity
  8
DEFPOINTS
 62
     0
100
AcDbPoint
 10
892.8227756517527
 20
174.0621064216848
 30
0.0
  0
POINT
  5
6479
330
6703
100
AcDbEntity
  8
DEFPOINTS
 62
     0
100
AcDbPoint
 10
892.8227756517527
 20
183.0621064216557
 30
0.0
  0
POINT
  5
647A
330
6703
100
AcDbEntity
  8
DEFPOINTS
 62
     0
100
AcDbPoint
 10
894.2765781200222
 20
183.0621064216557
 30
0.0
  0
ENDBLK
  5
6470
330
6703
100
AcDbEntity
  8
0
100
AcDbBlockEnd
  0
BLOCK
  5
670D
330
6705
100
AcDbEntity
  8
0
100
AcDbBlockBegin
  2
*U175
 70
     1
 10
0.0
 20
0.0
 30
0.0
  3
*U175
  1

  0
TEXT
  5
653C
330
6705
100
AcDbEntity
  8
标注
100
AcDbText
 10
894.6015781200221
 20
178.1287730883369
 30
0.0
 40
0.65
  1
9"
 50
90.0
100
AcDbText
  0
ENDBLK
  5
653E
330
6705
100
AcDbEntity
  8
0
100
AcDbBlockEnd
  0
BLOCK
  5
671A
330
670F
100
AcDbEntity
  8
0
100
AcDbBlockBegin
  2
*D176
 70
     1
 10
0.0
 20
0.0
 30
0.0
  3
*D176
  1

  0
LINE
  5
67AC
330
670F
100
AcDbEntity
  8
标注
 62
     0
370
    -2
100
AcDbLine
 10
1095.620738953094
 20
255.3632608081981
 30
0.0
 11
1095.620738953094
 21
251.2323037775174
 31
0.0
  0
LINE
  5
67AD
330
670F
100
AcDbEntity
  8
标注
 62
     0
370
    -2
100
AcDbLine
 10
1122.746920055242
 20
255.3632608081981
 30
0.0
 11
1122.746920055242
 21
251.2323037775174
 31
0.0
  0
LINE
  5
67AE
330
670F
100
AcDbEntity
  8
标注
 62
     0
370
    -2
100
AcDbLine
 10
1095.800738953094
 20
251.4123037775174
 30
0.0
 11
1108.583829504168
 21
251.4123037775174
 31
0.0
  0
LINE
  5
67AF
330
670F
100
AcDbEntity
  8
标注
 62
     0
370
    -2
100
AcDbLine
 10
1122.566920055241
 20
251.4123037775174
 30
0.0
 11
1109.783829504168
 21
251.4123037775174
 31
0.0
  0
SOLID
  5
67B0
330
670F
100
AcDbEntity
  8
标注
 62
     0
100
AcDbTrace
 10
1095.800738953094
 20
251.4423037775174
 30
0.0
 11
1095.800738953094
 21
251.3823037775174
 31
0.0
 12
1095.620738953094
 22
251.4123037775174
 32
0.0
 13
1095.620738953094
 23
251.4123037775174
 33
0.0
  0
SOLID
  5
67B1
330
670F
100
AcDbEntity
  8
标注
 62
     0
100
AcDbTrace
 10
1122.566920055241
 20
251.4423037775174
 30
0.0
 11
1122.566920055241
 21
251.3823037775174
 31
0.0
 12
1122.746920055242
 22
251.4123037775174
 32
0.0
 13
1122.746920055242
 23
251.4123037775174
 33
0.0
  0
MTEXT
  5
67B2
330
670F
100
AcDbEntity
  8
标注
 62
     0
100
AcDbMText
 10
1109.183829504168
 20
251.4123037775174
 30
0.0
 40
0.18
 41
0.0
 71
     5
 72
     1
  1
\A1;27.1262
 73
     1
 44
1.0
  0
POINT
  5
67B3
330
670F
100
AcDbEntity
  8
DEFPOINTS
 62
     0
100
AcDbPoint
 10
1095.620738953094
 20
255.425760808198
 30
0.0
  0
POINT
  5
67B4
330
670F
100
AcDbEntity
  8
DEFPOINTS
 62
     0
100
AcDbPoint
 10
1122.746920055242
 20
255.425760808198
 30
0.0
  0
POINT
  5
67B5
330
670F
100
AcDbEntity
  8
DEFPOINTS
 62
     0
100
AcDbPoint
 10
1122.746920055242
 20
251.4123037775174
 30
0.0
  0
ENDBLK
  5
671B
330
670F
100
AcDbEntity
  8
0
100
AcDbBlockEnd
  0
BLOCK
  5
6727
330
671C
100
AcDbEntity
  8
0
100
AcDbBlockBegin
  2
*D177
 70
     1
 10
0.0
 20
0.0
 30
0.0
  3
*D177
  1

  0
LINE
  5
67B6
330
671C
100
AcDbEntity
  8
标注
 62
     0
370
    -2
100
AcDbLine
 10
1094.183731079082
 20
253.6132608082186
 30
0.0
 11
1094.183731079082
 21
249.3140321056642
 31
0.0
  0
LINE
  5
67B7
330
671C
100
AcDbEntity
  8
标注
 62
     0
370
    -2
100
AcDbLine
 10
1124.183927929238
 20
253.613260808205
 30
0.0
 11
1124.183927929238
 21
249.3140321056642
 31
0.0
  0
LINE
  5
67B8
330
671C
100
AcDbEntity
  8
标注
 62
     0
370
    -2
100
AcDbLine
 10
1094.363731079082
 20
249.4940321056642
 30
0.0
 11
1108.61382950416
 21
249.4940321056642
 31
0.0
  0
LINE
  5
67B9
330
671C
100
AcDbEntity
  8
标注
 62
     0
370
    -2
100
AcDbLine
 10
1124.003927929238
 20
249.4940321056642
 30
0.0
 11
1109.75382950416
 21
249.4940321056642
 31
0.0
  0
SOLID
  5
67BA
330
671C
100
AcDbEntity
  8
标注
 62
     0
100
AcDbTrace
 10
1094.363731079082
 20
249.5240321056642
 30
0.0
 11
1094.363731079082
 21
249.4640321056642
 31
0.0
 12
1094.183731079082
 22
249.4940321056642
 32
0.0
 13
1094.183731079082
 23
249.4940321056642
 33
0.0
  0
SOLID
  5
67BB
330
671C
100
AcDbEntity
  8
标注
 62
     0
100
AcDbTrace
 10
1124.003927929238
 20
249.5240321056642
 30
0.0
 11
1124.003927929238
 21
249.4640321056642
 31
0.0
 12
1124.183927929238
 22
249.4940321056642
 32
0.0
 13
1124.183927929238
 23
249.4940321056642
 33
0.0
  0
MTEXT
  5
67BC
330
671C
100
AcDbEntity
  8
标注
 62
     0
100
AcDbMText
 10
1109.18382950416
 20
249.4940321056642
 30
0.0
 40
0.18
 41
0.0
 71
     5
 72
     1
  1
\A1;30.0002
 73
     1
 44
1.0
  0
POINT
  5
67BD
330
671C
100
AcDbEntity
  8
DEFPOINTS
 62
     0
100
AcDbPoint
 10
1094.183731079082
 20
253.6757608082186
 30
0.0
  0
POINT
  5
67BE
330
671C
100
AcDbEntity
  8
DEFPOINTS
 62
     0
100
AcDbPoint
 10
1124.183927929238
 20
253.6757608082051
 30
0.0
  0
POINT
  5
67BF
330
671C
100
AcDbEntity
  8
DEFPOINTS
 62
     0
100
AcDbPoint
 10
1124.183927929238
 20
249.4940321056642
 30
0.0
  0
ENDBLK
  5
6728
330
671C
100
AcDbEntity
  8
0
100
AcDbBlockEnd
  0
BLOCK
  5
6734
330
6729
100
AcDbEntity
  8
0
100
AcDbBlockBegin
  2
*D178
 70
     1
 10
0.0
 20
0.0
 30
0.0
  3
*D178
  1

  0
LINE
  5
67C0
330
6729
100
AcDbEntity
  8
标注
 62
     0
370
    -2
100
AcDbLine
 10
1122.809420055242
 20
255.425760808198
 30
0.0
 11
1126.047930440122
 21
255.425760808198
 31
0.0
  0
LINE
  5
67C1
330
6729
100
AcDbEntity
  8
标注
 62
     0
370
    -2
100
AcDbLine
 10
1122.809420055242
 20
271.4257608080758
 30
0.0
 11
1126.047930440122
 21
271.4257608080758
 31
0.0
  0
LINE
  5
67C2
330
6729
100
AcDbEntity
  8
标注
 62
     0
370
    -2
100
AcDbLine
 10
1125.867930440122
 20
255.6057608081981
 30
0.0
 11
1125.867930440122
 21
263.2457608081369
 31
0.0
  0
LINE
  5
67C3
330
6729
100
AcDbEntity
  8
标注
 62
     0
370
    -2
100
AcDbLine
 10
1125.867930440122
 20
271.2457608080758
 30
0.0
 11
1125.867930440122
 21
263.6057608081369
 31
0.0
  0
SOLID
  5
67C4
330
6729
100
AcDbEntity
  8
标注
 62
     0
100
AcDbTrace
 10
1125.837930440122
 20
255.6057608081981
 30
0.0
 11
1125.897930440122
 21
255.6057608081981
 31
0.0
 12
1125.867930440122
 22
255.425760808198
 32
0.0
 13
1125.867930440122
 23
255.425760808198
 33
0.0
  0
SOLID
  5
67C5
330
6729
100
AcDbEntity
  8
标注
 62
     0
100
AcDbTrace
 10
1125.837930440122
 20
271.2457608080758
 30
0.0
 11
1125.897930440122
 21
271.2457608080758
 31
0.0
 12
1125.867930440122
 22
271.4257608080758
 32
0.0
 13
1125.867930440122
 23
271.4257608080758
 33
0.0
  0
MTEXT
  5
67C6
330
6729
100
AcDbEntity
  8
标注
 62
     0
100
AcDbMText
 10
1125.867930440122
 20
263.4257608081371
 30
0.0
 40
0.18
 41
0.0
 71
     5
 72
     1
  1
\A1;16.0000
 73
     1
 44
1.0
  0
POINT
  5
67C7
330
6729
100
AcDbEntity
  8
DEFPOINTS
 62
     0
100
AcDbPoint
 10
1122.746920055242
 20
255.425760808198
 30
0.0
  0
POINT
  5
67C8
330
6729
100
AcDbEntity
  8
DEFPOINTS
 62
     0
100
AcDbPoint
 10
1122.746920055242
 20
271.4257608080758
 30
0.0
  0
POINT
  5
67C9
330
6729
100
AcDbEntity
  8
DEFPOINTS
 62
     0
100
AcDbPoint
 10
1125.867930440122
 20
271.4257608080758
 30
0.0
  0
ENDBLK
  5
6735
330
6729
100
AcDbEntity
  8
0
100
AcDbBlockEnd
  0
BLOCK
  5
6741
330
6736
100
AcDbEntity
  8
0
100
AcDbBlockBegin
  2
*D179
 70
     1
 10
0.0
 20
0.0
 30
0.0
  3
*D179
  1

  0
LINE
  5
67CA
330
6736
100
AcDbEntity
  8
标注
 62
     0
370
    -2
100
AcDbLine
 10
1124.246427929238
 20
281.1163503079589
 30
0.0
 11
1125.817730397502
 21
281.1163503079589
 31
0.0
  0
LINE
  5
67CB
330
6736
100
AcDbEntity
  8
标注
 62
     0
370
    -2
100
AcDbLine
 10
1124.246427929238
 20
290.1163503078938
 30
0.0
 11
1125.817730397502
 21
290.1163503078938
 31
0.0
  0
LINE
  5
67CC
330
6736
100
AcDbEntity
  8
标注
 62
     0
370
    -2
100
AcDbLine
 10
1125.637730397502
 20
281.2963503079589
 30
0.0
 11
1125.637730397502
 21
285.4363503079264
 31
0.0
  0
LINE
  5
67CD
330
6736
100
AcDbEntity
  8
标注
 62
     0
370
    -2
100
AcDbLine
 10
1125.637730397502
 20
289.9363503078938
 30
0.0
 11
1125.637730397502
 21
285.7963503079264
 31
0.0
  0
SOLID
  5
67CE
330
6736
100
AcDbEntity
  8
标注
 62
     0
100
AcDbTrace
 10
1125.607730397502
 20
281.2963503079589
 30
0.0
 11
1125.667730397502
 21
281.2963503079589
 31
0.0
 12
1125.637730397502
 22
281.1163503079589
 32
0.0
 13
1125.637730397502
 23
281.1163503079589
 33
0.0
  0
SOLID
  5
67CF
330
6736
100
AcDbEntity
  8
标注
 62
     0
100
AcDbTrace
 10
1125.607730397502
 20
289.9363503078938
 30
0.0
 11
1125.667730397502
 21
289.9363503078938
 31
0.0
 12
1125.637730397502
 22
290.1163503078938
 32
0.0
 13
1125.637730397502
 23
290.1163503078938
 33
0.0
  0
MTEXT
  5
67D0
330
6736
100
AcDbEntity
  8
标注
 62
     0
100
AcDbMText
 10
1125.637730397502
 20
285.6163503079265
 30
0.0
 40
0.18
 41
0.0
 71
     5
 72
     1
  1
\A1;9.0000
 73
     1
 44
1.0
  0
POINT
  5
67D1
330
6736
100
AcDbEntity
  8
DEFPOINTS
 62
     0
100
AcDbPoint
 10
1124.183927929238
 20
281.1163503079589
 30
0.0
  0
POINT
  5
67D2
330
6736
100
AcDbEntity
  8
DEFPOINTS
 62
     0
100
AcDbPoint
 10
1124.183927929238
 20
290.1163503078938
 30
0.0
  0
POINT
  5
67D3
330
6736
100
AcDbEntity
  8
DEFPOINTS
 62
     0
100
AcDbPoint
 10
1125.637730397502
 20
290.1163503078938
 30
0.0
  0
ENDBLK
  5
6742
330
6736
100
AcDbEntity
  8
0
100
AcDbBlockEnd
  0
BLOCK
  5
674E
330
6743
100
AcDbEntity
  8
0
100
AcDbBlockBegin
  2
*D180
 70
     1
 10
0.0
 20
0.0
 30
0.0
  3
*D180
  1

  0
LINE
  5
67D4
330
6743
100
AcDbEntity
  8
标注
 62
     0
370
    -2
100
AcDbLine
 10
1124.467184088862
 20
280.1206289570902
 30
0.0
 11
1127.251967152407
 21
280.1206289570902
 31
0.0
  0
LINE
  5
67D5
330
6743
100
AcDbEntity
  8
标注
 62
     0
370
    -2
100
AcDbLine
 10
1124.246427929238
 20
290.1163503078938
 30
0.0
 11
1127.251967152407
 21
290.1163503078938
 31
0.0
  0
LINE
  5
67D6
330
6743
100
AcDbEntity
  8
标注
 62
     0
370
    -2
100
AcDbLine
 10
1127.071967152406
 20
280.3006289570902
 30
0.0
 11
1127.071967152406
 21
284.938489632492
 31
0.0
  0
LINE
  5
67D7
330
6743
100
AcDbEntity
  8
标注
 62
     0
370
    -2
100
AcDbLine
 10
1127.071967152406
 20
289.9363503078938
 30
0.0
 11
1127.071967152406
 21
285.298489632492
 31
0.0
  0
SOLID
  5
67D8
330
6743
100
AcDbEntity
  8
标注
 62
     0
100
AcDbTrace
 10
1127.041967152407
 20
280.3006289570902
 30
0.0
 11
1127.101967152406
 21
280.3006289570902
 31
0.0
 12
1127.071967152406
 22
280.1206289570902
 32
0.0
 13
1127.071967152406
 23
280.1206289570902
 33
0.0
  0
SOLID
  5
67D9
330
6743
100
AcDbEntity
  8
标注
 62
     0
100
AcDbTrace
 10
1127.041967152407
 20
289.9363503078938
 30
0.0
 11
1127.101967152406
 21
289.9363503078938
 31
0.0
 12
1127.071967152406
 22
290.1163503078938
 32
0.0
 13
1127.071967152406
 23
290.1163503078938
 33
0.0
  0
MTEXT
  5
67DA
330
6743
100
AcDbEntity
  8
标注
 62
     0
100
AcDbMText
 10
1127.071967152406
 20
285.1184896324922
 30
0.0
 40
0.18
 41
0.0
 71
     5
 72
     1
  1
\A1;9.9957
 73
     1
 44
1.0
  0
POINT
  5
67DB
330
6743
100
AcDbEntity
  8
DEFPOINTS
 62
     0
100
AcDbPoint
 10
1124.404684088862
 20
280.1206289570902
 30
0.0
  0
POINT
  5
67DC
330
6743
100
AcDbEntity
  8
DEFPOINTS
 62
     0
100
AcDbPoint
 10
1124.183927929238
 20
290.1163503078938
 30
0.0
  0
POINT
  5
67DD
330
6743
100
AcDbEntity
  8
DEFPOINTS
 62
     0
100
AcDbPoint
 10
1127.071967152406
 20
290.1163503078938
 30
0.0
  0
ENDBLK
  5
674F
330
6743
100
AcDbEntity
  8
0
100
AcDbBlockEnd
  0
BLOCK
  5
675B
330
6750
100
AcDbEntity
  8
0
100
AcDbBlockBegin
  2
*D181
 70
     1
 10
0.0
 20
0.0
 30
0.0
  3
*D181
  1

  0
LINE
  5
67DE
330
6750
100
AcDbEntity
  8
标注
 62
     0
370
    -2
100
AcDbLine
 10
1095.523499270556
 20
217.5039634025376
 30
0.0
 11
1095.523499270556
 21
215.3045591322466
 31
0.0
  0
LINE
  5
67DF
330
6750
100
AcDbEntity
  8
标注
 62
     0
370
    -2
100
AcDbLine
 10
1122.807160687659
 20
217.5039634025376
 30
0.0
 11
1122.807160687659
 21
215.3045591322466
 31
0.0
  0
LINE
  5
67E0
330
6750
100
AcDbEntity
  8
标注
 62
     0
370
    -2
100
AcDbLine
 10
1095.703499270556
 20
215.4845591322466
 30
0.0
 11
1108.535329979107
 21
215.4845591322466
 31
0.0
  0
LINE
  5
67E1
330
6750
100
AcDbEntity
  8
标注
 62
     0
370
    -2
100
AcDbLine
 10
1122.627160687659
 20
215.4845591322466
 30
0.0
 11
1109.795329979108
 21
215.4845591322466
 31
0.0
  0
SOLID
  5
67E2
330
6750
100
AcDbEntity
  8
标注
 62
     0
100
AcDbTrace
 10
1095.703499270556
 20
215.5145591322466
 30
0.0
 11
1095.703499270556
 21
215.4545591322466
 31
0.0
 12
1095.523499270556
 22
215.4845591322466
 32
0.0
 13
1095.523499270556
 23
215.4845591322466
 33
0.0
  0
SOLID
  5
67E3
330
6750
100
AcDbEntity
  8
标注
 62
     0
100
AcDbTrace
 10
1122.627160687659
 20
215.5145591322466
 30
0.0
 11
1122.627160687659
 21
215.4545591322466
 31
0.0
 12
1122.807160687659
 22
215.4845591322466
 32
0.0
 13
1122.807160687659
 23
215.4845591322466
 33
0.0
  0
MTEXT
  5
67E4
330
6750
100
AcDbEntity
  8
标注
 62
     0
100
AcDbMText
 10
1109.165329979107
 20
215.4845591322466
 30
0.0
 40
0.18
 41
0.0
 71
     5
 72
     1
  1
\A1;27.2837
 73
     1
 44
1.0
  0
POINT
  5
67E5
330
6750
100
AcDbEntity
  8
DEFPOINTS
 62
     0
100
AcDbPoint
 10
1095.523499270556
 20
217.5664634025376
 30
0.0
  0
POINT
  5
67E6
330
6750
100
AcDbEntity
  8
DEFPOINTS
 62
     0
100
AcDbPoint
 10
1122.807160687659
 20
217.5664634025376
 30
0.0
  0
POINT
  5
67E7
330
6750
100
AcDbEntity
  8
DEFPOINTS
 62
     0
100
AcDbPoint
 10
1122.807160687659
 20
215.4845591322466
 30
0.0
  0
ENDBLK
  5
675C
330
6750
100
AcDbEntity
  8
0
100
AcDbBlockEnd
  0
BLOCK
  5
6768
330
675D
100
AcDbEntity
  8
0
100
AcDbBlockBegin
  2
*D182
 70
     1
 10
0.0
 20
0.0
 30
0.0
  3
*D182
  1

  0
LINE
  5
67E8
330
675D
100
AcDbEntity
  8
标注
 62
     0
370
    -2
100
AcDbLine
 10
1122.869660687659
 20
217.5664634025376
 30
0.0
 11
1124.923925627793
 21
217.5664634025376
 31
0.0
  0
LINE
  5
67E9
330
675D
100
AcDbEntity
  8
标注
 62
     0
370
    -2
100
AcDbLine
 10
1122.869660687659
 20
235.5177427229725
 30
0.0
 11
1124.923925627793
 21
235.5177427229725
 31
0.0
  0
LINE
  5
67EA
330
675D
100
AcDbEntity
  8
标注
 62
     0
370
    -2
100
AcDbLine
 10
1124.743925627793
 20
217.7464634025376
 30
0.0
 11
1124.743925627793
 21
226.362103062755
 31
0.0
  0
LINE
  5
67EB
330
675D
100
AcDbEntity
  8
标注
 62
     0
370
    -2
100
AcDbLine
 10
1124.743925627793
 20
235.3377427229725
 30
0.0
 11
1124.743925627793
 21
226.722103062755
 31
0.0
  0
SOLID
  5
67EC
330
675D
100
AcDbEntity
  8
标注
 62
     0
100
AcDbTrace
 10
1124.713925627793
 20
217.7464634025376
 30
0.0
 11
1124.773925627793
 21
217.7464634025376
 31
0.0
 12
1124.743925627793
 22
217.5664634025376
 32
0.0
 13
1124.743925627793
 23
217.5664634025376
 33
0.0
  0
SOLID
  5
67ED
330
675D
100
AcDbEntity
  8
标注
 62
     0
100
AcDbTrace
 10
1124.713925627793
 20
235.3377427229725
 30
0.0
 11
1124.773925627793
 21
235.3377427229725
 31
0.0
 12
1124.743925627793
 22
235.5177427229725
 32
0.0
 13
1124.743925627793
 23
235.5177427229725
 33
0.0
  0
MTEXT
  5
67EE
330
675D
100
AcDbEntity
  8
标注
 62
     0
100
AcDbMText
 10
1124.743925627793
 20
226.5421030627552
 30
0.0
 40
0.18
 41
0.0
 71
     5
 72
     1
  1
\A1;17.9513
 73
     1
 44
1.0
  0
POINT
  5
67EF
330
675D
100
AcDbEntity
  8
DEFPOINTS
 62
     0
100
AcDbPoint
 10
1122.807160687659
 20
217.5664634025376
 30
0.0
  0
POINT
  5
67F0
330
675D
100
AcDbEntity
  8
DEFPOINTS
 62
     0
100
AcDbPoint
 10
1122.807160687659
 20
235.5177427229725
 30
0.0
  0
POINT
  5
67F1
330
675D
100
AcDbEntity
  8
DEFPOINTS
 62
     0
100
AcDbPoint
 10
1124.743925627793
 20
235.5177427229725
 30
0.0
  0
ENDBLK
  5
6769
330
675D
100
AcDbEntity
  8
0
100
AcDbBlockEnd
  0
BLOCK
  5
6775
330
676A
100
AcDbEntity
  8
0
100
AcDbBlockBegin
  2
*D183
 70
     1
 10
0.0
 20
0.0
 30
0.0
  3
*D183
  1

  0
LINE
  5
67F2
330
676A
100
AcDbEntity
  8
标注
 62
     0
370
    -2
100
AcDbLine
 10
1109.246329504161
 20
252.9257608082243
 30
0.0
 11
1127.587487616047
 21
252.9257608082243
 31
0.0
  0
LINE
  5
67F3
330
676A
100
AcDbEntity
  8
标注
 62
     0
370
    -2
100
AcDbLine
 10
1124.246427929238
 20
272.9257608080554
 30
0.0
 11
1127.587487616047
 21
272.9257608080554
 31
0.0
  0
LINE
  5
67F4
330
676A
100
AcDbEntity
  8
标注
 62
     0
370
    -2
100
AcDbLine
 10
1127.407487616047
 20
253.1057608082243
 30
0.0
 11
1127.407487616047
 21
262.7457608081399
 31
0.0
  0
LINE
  5
67F5
330
676A
100
AcDbEntity
  8
标注
 62
     0
370
    -2
100
AcDbLine
 10
1127.407487616047
 20
272.7457608080554
 30
0.0
 11
1127.407487616047
 21
263.1057608081399
 31
0.0
  0
SOLID
  5
67F6
330
676A
100
AcDbEntity
  8
标注
 62
     0
100
AcDbTrace
 10
1127.377487616047
 20
253.1057608082243
 30
0.0
 11
1127.437487616047
 21
253.1057608082243
 31
0.0
 12
1127.407487616047
 22
252.9257608082243
 32
0.0
 13
1127.407487616047
 23
252.9257608082243
 33
0.0
  0
SOLID
  5
67F7
330
676A
100
AcDbEntity
  8
标注
 62
     0
100
AcDbTrace
 10
1127.377487616047
 20
272.7457608080554
 30
0.0
 11
1127.437487616047
 21
272.7457608080554
 31
0.0
 12
1127.407487616047
 22
272.9257608080554
 32
0.0
 13
1127.407487616047
 23
272.9257608080554
 33
0.0
  0
MTEXT
  5
67F8
330
676A
100
AcDbEntity
  8
标注
 62
     0
100
AcDbMText
 10
1127.407487616047
 20
262.9257608081401
 30
0.0
 40
0.18
 41
0.0
 71
     5
 72
     1
  1
\A1;20.0000
 73
     1
 44
1.0
  0
POINT
  5
67F9
330
676A
100
AcDbEntity
  8
DEFPOINTS
 62
     0
100
AcDbPoint
 10
1109.183829504161
 20
252.9257608082243
 30
0.0
  0
POINT
  5
67FA
330
676A
100
AcDbEntity
  8
DEFPOINTS
 62
     0
100
AcDbPoint
 10
1124.183927929238
 20
272.9257608080554
 30
0.0
  0
POINT
  5
67FB
330
676A
100
AcDbEntity
  8
DEFPOINTS
 62
     0
100
AcDbPoint
 10
1127.407487616047
 20
272.9257608080554
 30
0.0
  0
ENDBLK
  5
6776
330
676A
100
AcDbEntity
  8
0
100
AcDbBlockEnd
  0
BLOCK
  5
6788
330
677D
100
AcDbEntity
  8
0
100
AcDbBlockBegin
  2
*D184
 70
     1
 10
0.0
 20
0.0
 30
0.0
  3
*D184
  1

  0
LINE
  5
6794
330
677D
100
AcDbEntity
  8
标注
 62
     3
370
    -2
100
AcDbLine
 10
360.8124575226856
 20
852.0836541180797
 30
0.0
 11
378.4278100743907
 21
852.0836541180797
 31
0.0
  0
LINE
  5
6795
330
677D
100
AcDbEntity
  8
标注
 62
     3
370
    -2
100
AcDbLine
 10
360.8124575226856
 20
972.0836541180647
 30
0.0
 11
378.4278100743907
 21
972.0836541180647
 31
0.0
  0
LINE
  5
6796
330
677D
100
AcDbEntity
  8
标注
 62
     3
370
    -2
100
AcDbLine
 10
378.1078100743907
 20
852.7336541180797
 30
0.0
 11
378.1078100743907
 21
911.1794874514057
 31
0.0
  0
LINE
  5
6797
330
677D
100
AcDbEntity
  8
标注
 62
     3
370
    -2
100
AcDbLine
 10
378.1078100743907
 20
971.4336541180648
 30
0.0
 11
378.1078100743907
 21
912.9878207847388
 31
0.0
  0
SOLID
  5
6798
330
677D
100
AcDbEntity
  8
标注
 62
     3
100
AcDbTrace
 10
377.9994767410573
 20
852.7336541180797
 30
0.0
 11
378.216143407724
 21
852.7336541180797
 31
0.0
 12
378.1078100743907
 22
852.0836541180797
 32
0.0
 13
378.1078100743907
 23
852.0836541180797
 33
0.0
  0
SOLID
  5
6799
330
677D
100
AcDbEntity
  8
标注
 62
     3
100
AcDbTrace
 10
377.9994767410574
 20
971.4336541180648
 30
0.0
 11
378.2161434077242
 21
971.4336541180648
 31
0.0
 12
378.1078100743907
 22
972.0836541180647
 32
0.0
 13
378.1078100743907
 23
972.0836541180647
 33
0.0
  0
MTEXT
  5
679A
330
677D
100
AcDbEntity
  8
标注
100
AcDbMText
 10
378.1078100743906
 20
912.0836541180723
 30
0.0
 40
0.65
 41
0.0
 71
     5
 72
     1
  1
\A1;120
 11
0.0000000000000001
 21
1.0
 31
0.0
 73
     1
 44
1.0
  0
POINT
  5
679B
330
677D
100
AcDbEntity
  8
DEFPOINTS
 62
     0
100
AcDbPoint
 10
359.9324575226857
 20
852.0836541180797
 30
0.0
  0
POINT
  5
679C
330
677D
100
AcDbEntity
  8
DEFPOINTS
 62
     0
100
AcDbPoint
 10
359.9324575226857
 20
972.0836541180647
 30
0.0
  0
POINT
  5
679D
330
677D
100
AcDbEntity
  8
DEFPOINTS
 62
     0
100
AcDbPoint
 10
378.1078100743907
 20
972.0836541180647
 30
0.0
  0
ENDBLK
  5
6789
330
677D
100
AcDbEntity
  8
0
100
AcDbBlockEnd
  0
BLOCK
  5
67AA
330
679F
100
AcDbEntity
  8
0
100
AcDbBlockBegin
  2
*D185
 70
     1
 10
0.0
 20
0.0
 30
0.0
  3
*D185
  1

  0
LINE
  5
6825
330
679F
100
AcDbEntity
  8
标注
 62
     3
370
    -2
100
AcDbLine
 10
1110.063829504218
 20
266.7013513592764
 30
0.0
 11
1109.975610660354
 21
266.7013513592764
 31
0.0
  0
LINE
  5
6826
330
679F
100
AcDbEntity
  8
标注
 62
     3
370
    -2
100
AcDbLine
 10
1110.063829504218
 20
271.4257608080758
 30
0.0
 11
1109.975610660354
 21
271.4257608080758
 31
0.0
  0
LINE
  5
6827
330
679F
100
AcDbEntity
  8
标注
 62
     3
370
    -2
100
AcDbLine
 10
1109.655610660354
 20
267.3513513592764
 30
0.0
 11
1109.655610660354
 21
268.3218894170094
 31
0.0
  0
LINE
  5
6828
330
679F
100
AcDbEntity
  8
标注
 62
     3
370
    -2
100
AcDbLine
 10
1109.655610660354
 20
270.7757608080759
 30
0.0
 11
1109.655610660354
 21
269.8052227503428
 31
0.0
  0
SOLID
  5
6829
330
679F
100
AcDbEntity
  8
标注
 62
     3
100
AcDbTrace
 10
1109.54727732702
 20
267.3513513592764
 30
0.0
 11
1109.763943993687
 21
267.3513513592764
 31
0.0
 12
1109.655610660354
 22
266.7013513592764
 32
0.0
 13
1109.655610660354
 23
266.7013513592764
 33
0.0
  0
SOLID
  5
682A
330
679F
100
AcDbEntity
  8
标注
 62
     3
100
AcDbTrace
 10
1109.54727732702
 20
270.7757608080759
 30
0.0
 11
1109.763943993687
 21
270.7757608080759
 31
0.0
 12
1109.655610660354
 22
271.4257608080758
 32
0.0
 13
1109.655610660354
 23
271.4257608080758
 33
0.0
  0
MTEXT
  5
682B
330
679F
100
AcDbEntity
  8
标注
100
AcDbMText
 10
1109.655610660354
 20
269.0635560836763
 30
0.0
 40
0.65
 41
0.0
 71
     5
 72
     1
  1
\A1;4{\H1.000000x;\S3/4;}
 11
0.0000000000000001
 21
1.0
 31
0.0
 73
     1
 44
1.0
  0
POINT
  5
682C
330
679F
100
AcDbEntity
  8
DEFPOINTS
 62
     0
100
AcDbPoint
 10
1109.183829504218
 20
266.7013513592764
 30
0.0
  0
POINT
  5
682D
330
679F
100
AcDbEntity
  8
DEFPOINTS
 62
     0
100
AcDbPoint
 10
1109.183829504218
 20
271.4257608080758
 30
0.0
  0
POINT
  5
682E
330
679F
100
AcDbEntity
  8
DEFPOINTS
 62
     0
100
AcDbPoint
 10
1109.655610660354
 20
271.4257608080758
 30
0.0
  0
ENDBLK
  5
67AB
330
679F
100
AcDbEntity
  8
0
100
AcDbBlockEnd
  0
BLOCK
  5
6823
330
6818
100
AcDbEntity
  8
0
100
AcDbBlockBegin
  2
*D186
 70
     1
 10
0.0
 20
0.0
 30
0.0
  3
*D186
  1

  0
LINE
  5
6819
330
6818
100
AcDbEntity
  8
标注
 62
     3
370
    -2
100
AcDbLine
 10
1094.183731076247
 20
252.7957608085028
 30
0.0
 11
1094.183731076247
 21
247.5092049019519
 31
0.0
  0
LINE
  5
681A
330
6818
100
AcDbEntity
  8
标注
 62
     3
370
    -2
100
AcDbLine
 10
1124.183927929238
 20
252.733260808205
 30
0.0
 11
1124.183927929238
 21
247.5092049019519
 31
0.0
  0
LINE
  5
681B
330
6818
100
AcDbEntity
  8
标注
 62
     3
370
    -2
100
AcDbLine
 10
1094.833731076247
 20
247.8292049019519
 30
0.0
 11
1107.250496169409
 21
247.8292049019519
 31
0.0
  0
LINE
  5
681C
330
6818
100
AcDbEntity
  8
标注
 62
     3
370
    -2
100
AcDbLine
 10
1123.533927929238
 20
247.8292049019519
 30
0.0
 11
1111.117162836076
 21
247.8292049019519
 31
0.0
  0
SOLID
  5
681D
330
6818
100
AcDbEntity
  8
标注
 62
     3
100
AcDbTrace
 10
1094.833731076247
 20
247.9375382352853
 30
0.0
 11
1094.833731076247
 21
247.7208715686186
 31
0.0
 12
1094.183731076247
 22
247.8292049019519
 32
0.0
 13
1094.183731076247
 23
247.8292049019519
 33
0.0
  0
SOLID
  5
681E
330
6818
100
AcDbEntity
  8
标注
 62
     3
100
AcDbTrace
 10
1123.533927929238
 20
247.9375382352853
 30
0.0
 11
1123.533927929238
 21
247.7208715686186
 31
0.0
 12
1124.183927929238
 22
247.8292049019519
 32
0.0
 13
1124.183927929238
 23
247.8292049019519
 33
0.0
  0
MTEXT
  5
681F
330
6818
100
AcDbEntity
  8
标注
100
AcDbMText
 10
1109.183829502742
 20
247.8292049019519
 30
0.0
 40
0.65
 41
0.0
 71
     5
 72
     1
  1
\A1;30.0002
 73
     1
 44
1.0
  0
POINT
  5
6820
330
6818
100
AcDbEntity
  8
DEFPOINTS
 62
     0
100
AcDbPoint
 10
1094.183731076247
 20
253.6757608085028
 30
0.0
  0
POINT
  5
6821
330
6818
100
AcDbEntity
  8
DEFPOINTS
 62
     0
100
AcDbPoint
 10
1124.183927929238
 20
253.613260808205
 30
0.0
  0
POINT
  5
6822
330
6818
100
AcDbEntity
  8
DEFPOINTS
 62
     0
100
AcDbPoint
 10
1124.183927929238
 20
247.8292049019519
 30
0.0
  0
ENDBLK
  5
6824
330
6818
100
AcDbEntity
  8
0
100
AcDbBlockEnd
  0
BLOCK
  5
683B
330
6830
100
AcDbEntity
  8
0
100
AcDbBlockBegin
  2
*D187
 70
     1
 10
0.0
 20
0.0
 30
0.0
  3
*D187
  1

  0
LINE
  5
6831
330
6830
100
AcDbEntity
  8
标注
 62
     3
370
    -2
100
AcDbLine
 10
1094.183731079082
 20
252.7957608082051
 30
0.0
 11
1094.183731079082
 21
249.9221040231202
 31
0.0
  0
LINE
  5
6832
330
6830
100
AcDbEntity
  8
标注
 62
     3
370
    -2
100
AcDbLine
 10
1124.183927929238
 20
252.7957608082051
 30
0.0
 11
1124.183927929238
 21
249.9221040231202
 31
0.0
  0
LINE
  5
6833
330
6830
100
AcDbEntity
  8
标注
 62
     3
370
    -2
100
AcDbLine
 10
1094.833731079082
 20
250.2421040231202
 30
0.0
 11
1108.49632950416
 21
250.2421040231202
 31
0.0
  0
LINE
  5
6834
330
6830
100
AcDbEntity
  8
标注
 62
     3
370
    -2
100
AcDbLine
 10
1123.533927929238
 20
250.2421040231202
 30
0.0
 11
1109.87132950416
 21
250.2421040231202
 31
0.0
  0
SOLID
  5
6835
330
6830
100
AcDbEntity
  8
标注
 62
     3
100
AcDbTrace
 10
1094.833731079082
 20
250.3504373564535
 30
0.0
 11
1094.833731079082
 21
250.1337706897869
 31
0.0
 12
1094.183731079082
 22
250.2421040231202
 32
0.0
 13
1094.183731079082
 23
250.2421040231202
 33
0.0
  0
SOLID
  5
6836
330
6830
100
AcDbEntity
  8
标注
 62
     3
100
AcDbTrace
 10
1123.533927929238
 20
250.3504373564535
 30
0.0
 11
1123.533927929238
 21
250.1337706897869
 31
0.0
 12
1124.183927929238
 22
250.2421040231202
 32
0.0
 13
1124.183927929238
 23
250.2421040231202
 33
0.0
  0
MTEXT
  5
6837
330
6830
100
AcDbEntity
  8
标注
100
AcDbMText
 10
1109.18382950416
 20
250.2421040231202
 30
0.0
 40
0.65
 41
0.0
 71
     5
 72
     1
  1
\A1;30
 73
     1
 44
1.0
  0
POINT
  5
6838
330
6830
100
AcDbEntity
  8
DEFPOINTS
 62
     0
100
AcDbPoint
 10
1094.183731079082
 20
253.6757608082051
 30
0.0
  0
POINT
  5
6839
330
6830
100
AcDbEntity
  8
DEFPOINTS
 62
     0
100
AcDbPoint
 10
1124.183927929238
 20
253.6757608082051
 30
0.0
  0
POINT
  5
683A
330
6830
100
AcDbEntity
  8
DEFPOINTS
 62
     0
100
AcDbPoint
 10
1124.183927929238
 20
250.2421040231202
 30
0.0
  0
ENDBLK
  5
683C
330
6830
100
AcDbEntity
  8
0
100
AcDbBlockEnd
  0
BLOCK
  5
6849
330
683E
100
AcDbEntity
  8
0
100
AcDbBlockBegin
  2
*D188
 70
     1
 10
0.0
 20
0.0
 30
0.0
  3
*D188
  1

  0
LINE
  5
683F
330
683E
100
AcDbEntity
  8
标注
 62
     3
370
    -2
100
AcDbLine
 10
1125.063927929238
 20
253.6757608082051
 30
0.0
 11
1128.803170595414
 21
253.6757608082051
 31
0.0
  0
LINE
  5
6840
330
683E
100
AcDbEntity
  8
标注
 62
     3
370
    -2
100
AcDbLine
 10
1125.063927929238
 20
272.9257608080554
 30
0.0
 11
1128.803170595414
 21
272.9257608080554
 31
0.0
  0
LINE
  5
6841
330
683E
100
AcDbEntity
  8
标注
 62
     3
370
    -2
100
AcDbLine
 10
1128.483170595415
 20
254.3257608082051
 30
0.0
 11
1128.483170595415
 21
262.342427474797
 31
0.0
  0
LINE
  5
6842
330
683E
100
AcDbEntity
  8
标注
 62
     3
370
    -2
100
AcDbLine
 10
1128.483170595415
 20
272.2757608080554
 30
0.0
 11
1128.483170595415
 21
264.2590941414636
 31
0.0
  0
SOLID
  5
6843
330
683E
100
AcDbEntity
  8
标注
 62
     3
100
AcDbTrace
 10
1128.374837262081
 20
254.3257608082051
 30
0.0
 11
1128.591503928748
 21
254.3257608082051
 31
0.0
 12
1128.483170595415
 22
253.6757608082051
 32
0.0
 13
1128.483170595415
 23
253.6757608082051
 33
0.0
  0
SOLID
  5
6844
330
683E
100
AcDbEntity
  8
标注
 62
     3
100
AcDbTrace
 10
1128.374837262081
 20
272.2757608080554
 30
0.0
 11
1128.591503928748
 21
272.2757608080554
 31
0.0
 12
1128.483170595415
 22
272.9257608080554
 32
0.0
 13
1128.483170595415
 23
272.9257608080554
 33
0.0
  0
MTEXT
  5
6845
330
683E
100
AcDbEntity
  8
标注
100
AcDbMText
 10
1128.483170595415
 20
263.3007608081304
 30
0.0
 40
0.65
 41
0.0
 71
     5
 72
     1
  1
\A1;19{\H1.000000x;\S1/4;}
 11
0.0000000000000001
 21
1.0
 31
0.0
 73
     1
 44
1.0
  0
POINT
  5
6846
330
683E
100
AcDbEntity
  8
DEFPOINTS
 62
     0
100
AcDbPoint
 10
1124.183927929238
 20
253.6757608082051
 30
0.0
  0
POINT
  5
6847
330
683E
100
AcDbEntity
  8
DEFPOINTS
 62
     0
100
AcDbPoint
 10
1124.183927929238
 20
272.9257608080554
 30
0.0
  0
POINT
  5
6848
330
683E
100
AcDbEntity
  8
DEFPOINTS
 62
     0
100
AcDbPoint
 10
1128.483170595415
 20
272.9257608080554
 30
0.0
  0
ENDBLK
  5
684A
330
683E
100
AcDbEntity
  8
0
100
AcDbBlockEnd
  0
BLOCK
  5
6858
330
684C
100
AcDbEntity
  8
0
100
AcDbBlockBegin
  2
*D189
 70
     1
 10
0.0
 20
0.0
 30
0.0
  3
*D189
  1

  0
LINE
  5
684D
330
684C
100
AcDbEntity
  8
标注
 62
     3
370
    -2
100
AcDbLine
 10
1094.933731079079
 20
270.3814217102971
 30
0.0
 11
1094.933731079079
 21
270.583798576887
 31
0.0
  0
LINE
  5
684E
330
684C
100
AcDbEntity
  8
标注
 62
     3
370
    -2
100
AcDbLine
 10
1094.183731079082
 20
270.3814217102971
 30
0.0
 11
1094.183731079082
 21
270.583798576887
 31
0.0
  0
LINE
  5
684F
330
684C
100
AcDbEntity
  8
标注
 62
     3
370
    -2
100
AcDbLine
 10
1095.583731079079
 20
270.263798576887
 30
0.0
 11
1096.233731079079
 21
270.263798576887
 31
0.0
  0
LINE
  5
6850
330
684C
100
AcDbEntity
  8
标注
 62
     3
370
    -2
100
AcDbLine
 10
1093.533731079082
 20
270.263798576887
 30
0.0
 11
1092.883731079082
 21
270.263798576887
 31
0.0
  0
MTEXT
  5
6851
330
684C
100
AcDbEntity
  8
标注
100
AcDbMText
 10
1094.55873107908
 20
271.6421319102203
 30
0.0
 40
0.65
 41
0.0
 71
     5
 72
     1
  1
\A1;{\H1.000000x;\S3/4;}
 73
     1
 44
1.0
  0
LINE
  5
6852
330
684C
100
AcDbEntity
  8
标注
 62
     3
370
    -2
100
AcDbLine
 10
1094.933731079079
 20
270.263798576887
 30
0.0
 11
1094.183731079082
 21
270.263798576887
 31
0.0
  0
SOLID
  5
6853
330
684C
100
AcDbEntity
  8
标注
 62
     3
100
AcDbTrace
 10
1095.583731079079
 20
270.3721319102204
 30
0.0
 11
1095.583731079079
 21
270.1554652435536
 31
0.0
 12
1094.933731079079
 22
270.263798576887
 32
0.0
 13
1094.933731079079
 23
270.263798576887
 33
0.0
  0
SOLID
  5
6854
330
684C
100
AcDbEntity
  8
标注
 62
     3
100
AcDbTrace
 10
1093.533731079082
 20
270.3721319102204
 30
0.0
 11
1093.533731079082
 21
270.1554652435536
 31
0.0
 12
1094.183731079082
 22
270.263798576887
 32
0.0
 13
1094.183731079082
 23
270.263798576887
 33
0.0
  0
POINT
  5
6855
330
684C
100
AcDbEntity
  8
DEFPOINTS
 62
     0
100
AcDbPoint
 10
1094.933731079079
 20
269.5014217102971
 30
0.0
  0
POINT
  5
6856
330
684C
100
AcDbEntity
  8
DEFPOINTS
 62
     0
100
AcDbPoint
 10
1094.183731079082
 20
269.5014217102971
 30
0.0
  0
POINT
  5
6857
330
684C
100
AcDbEntity
  8
DEFPOINTS
 62
     0
100
AcDbPoint
 10
1094.183731079082
 20
270.263798576887
 30
0.0
  0
ENDBLK
  5
6859
330
684C
100
AcDbEntity
  8
0
100
AcDbBlockEnd
  0
BLOCK
  5
69A5
330
699A
100
AcDbEntity
  8
0
100
AcDbBlockBegin
  2
*D190
 70
     1
 10
0.0
 20
0.0
 30
0.0
  3
*D190
  1

  0
LINE
  5
6A68
330
699A
100
AcDbEntity
  8
标注
 62
     0
370
    -2
100
AcDbLine
 10
768.2227313202299
 20
237.7835233742822
 30
0.0
 11
769.7940337884882
 21
237.7835233742822
 31
0.0
  0
LINE
  5
6A69
330
699A
100
AcDbEntity
  8
标注
 62
     0
370
    -2
100
AcDbLine
 10
768.2227313202299
 20
246.7835233741811
 30
0.0
 11
769.7940337884882
 21
246.7835233741811
 31
0.0
  0
LINE
  5
6A6A
330
699A
100
AcDbEntity
  8
标注
 62
     0
370
    -2
100
AcDbLine
 10
769.6140337884883
 20
237.9635233742822
 30
0.0
 11
769.6140337884883
 21
242.1035233742316
 31
0.0
  0
LINE
  5
6A6B
330
699A
100
AcDbEntity
  8
标注
 62
     0
370
    -2
100
AcDbLine
 10
769.6140337884883
 20
246.603523374181
 30
0.0
 11
769.6140337884883
 21
242.4635233742316
 31
0.0
  0
SOLID
  5
6A6C
330
699A
100
AcDbEntity
  8
标注
 62
     0
100
AcDbTrace
 10
769.5840337884883
 20
237.9635233742822
 30
0.0
 11
769.6440337884882
 21
237.9635233742822
 31
0.0
 12
769.6140337884883
 22
237.7835233742822
 32
0.0
 13
769.6140337884883
 23
237.7835233742822
 33
0.0
  0
SOLID
  5
6A6D
330
699A
100
AcDbEntity
  8
标注
 62
     0
100
AcDbTrace
 10
769.5840337884883
 20
246.603523374181
 30
0.0
 11
769.6440337884882
 21
246.603523374181
 31
0.0
 12
769.6140337884883
 22
246.7835233741811
 32
0.0
 13
769.6140337884883
 23
246.7835233741811
 33
0.0
  0
MTEXT
  5
6A6E
330
699A
100
AcDbEntity
  8
标注
 62
     0
100
AcDbMText
 10
769.6140337884883
 20
242.2835233742317
 30
0.0
 40
0.18
 41
0.0
 71
     5
 72
     1
  1
\A1;9.0000
 73
     1
 44
1.0
  0
POINT
  5
6A6F
330
699A
100
AcDbEntity
  8
DEFPOINTS
 62
     0
100
AcDbPoint
 10
768.1602313202301
 20
237.7835233742822
 30
0.0
  0
POINT
  5
6A70
330
699A
100
AcDbEntity
  8
DEFPOINTS
 62
     0
100
AcDbPoint
 10
768.1602313202301
 20
246.7835233741811
 30
0.0
  0
POINT
  5
6A71
330
699A
100
AcDbEntity
  8
DEFPOINTS
 62
     0
100
AcDbPoint
 10
769.6140337884883
 20
246.7835233741811
 30
0.0
  0
ENDBLK
  5
69A6
330
699A
100
AcDbEntity
  8
0
100
AcDbBlockEnd
  0
BLOCK
  5
69B2
330
69A7
100
AcDbEntity
  8
0
100
AcDbBlockBegin
  2
*D191
 70
     1
 10
0.0
 20
0.0
 30
0.0
  3
*D191
  1

  0
LINE
  5
6A72
330
69A7
100
AcDbEntity
  8
标注
 62
     0
370
    -2
100
AcDbLine
 10
768.443487479853
 20
236.7878020234174
 30
0.0
 11
771.2282705433862
 21
236.7878020234174
 31
0.0
  0
LINE
  5
6A73
330
69A7
100
AcDbEntity
  8
标注
 62
     0
370
    -2
100
AcDbLine
 10
768.2227313202299
 20
246.7835233741811
 30
0.0
 11
771.2282705433862
 21
246.7835233741811
 31
0.0
  0
LINE
  5
6A74
330
69A7
100
AcDbEntity
  8
标注
 62
     0
370
    -2
100
AcDbLine
 10
771.0482705433864
 20
236.9678020234174
 30
0.0
 11
771.0482705433864
 21
241.6056626987991
 31
0.0
  0
LINE
  5
6A75
330
69A7
100
AcDbEntity
  8
标注
 62
     0
370
    -2
100
AcDbLine
 10
771.0482705433864
 20
246.603523374181
 30
0.0
 11
771.0482705433864
 21
241.9656626987992
 31
0.0
  0
SOLID
  5
6A76
330
69A7
100
AcDbEntity
  8
标注
 62
     0
100
AcDbTrace
 10
771.0182705433862
 20
236.9678020234174
 30
0.0
 11
771.0782705433862
 21
236.9678020234174
 31
0.0
 12
771.0482705433864
 22
236.7878020234174
 32
0.0
 13
771.0482705433864
 23
236.7878020234174
 33
0.0
  0
SOLID
  5
6A77
330
69A7
100
AcDbEntity
  8
标注
 62
     0
100
AcDbTrace
 10
771.0182705433862
 20
246.603523374181
 30
0.0
 11
771.0782705433862
 21
246.603523374181
 31
0.0
 12
771.0482705433864
 22
246.7835233741811
 32
0.0
 13
771.0482705433864
 23
246.7835233741811
 33
0.0
  0
MTEXT
  5
6A78
330
69A7
100
AcDbEntity
  8
标注
 62
     0
100
AcDbMText
 10
771.0482705433864
 20
241.7856626987993
 30
0.0
 40
0.18
 41
0.0
 71
     5
 72
     1
  1
\A1;9.9957
 73
     1
 44
1.0
  0
POINT
  5
6A79
330
69A7
100
AcDbEntity
  8
DEFPOINTS
 62
     0
100
AcDbPoint
 10
768.380987479853
 20
236.7878020234174
 30
0.0
  0
POINT
  5
6A7A
330
69A7
100
AcDbEntity
  8
DEFPOINTS
 62
     0
100
AcDbPoint
 10
768.1602313202301
 20
246.7835233741811
 30
0.0
  0
POINT
  5
6A7B
330
69A7
100
AcDbEntity
  8
DEFPOINTS
 62
     0
100
AcDbPoint
 10
771.0482705433864
 20
246.7835233741811
 30
0.0
  0
ENDBLK
  5
69B3
330
69A7
100
AcDbEntity
  8
0
100
AcDbBlockEnd
  0
BLOCK
  5
69BF
330
69B4
100
AcDbEntity
  8
0
100
AcDbBlockBegin
  2
*D192
 70
     1
 10
0.0
 20
0.0
 30
0.0
  3
*D192
  1

  0
LINE
  5
6A7C
330
69B4
100
AcDbEntity
  8
标注
 62
     0
370
    -2
100
AcDbLine
 10
739.4998026616624
 20
174.171136469115
 30
0.0
 11
739.4998026616624
 21
171.9717321988323
 31
0.0
  0
LINE
  5
6A7D
330
69B4
100
AcDbEntity
  8
标注
 62
     0
370
    -2
100
AcDbLine
 10
766.7834640786566
 20
174.171136469115
 30
0.0
 11
766.7834640786566
 21
171.9717321988323
 31
0.0
  0
LINE
  5
6A7E
330
69B4
100
AcDbEntity
  8
标注
 62
     0
370
    -2
100
AcDbLine
 10
739.6798026616623
 20
172.1517321988323
 30
0.0
 11
752.5116333701594
 21
172.1517321988323
 31
0.0
  0
LINE
  5
6A7F
330
69B4
100
AcDbEntity
  8
标注
 62
     0
370
    -2
100
AcDbLine
 10
766.6034640786566
 20
172.1517321988323
 30
0.0
 11
753.7716333701593
 21
172.1517321988323
 31
0.0
  0
SOLID
  5
6A80
330
69B4
100
AcDbEntity
  8
标注
 62
     0
100
AcDbTrace
 10
739.6798026616623
 20
172.1817321988323
 30
0.0
 11
739.6798026616623
 21
172.1217321988324
 31
0.0
 12
739.4998026616624
 22
172.1517321988323
 32
0.0
 13
739.4998026616624
 23
172.1517321988323
 33
0.0
  0
SOLID
  5
6A81
330
69B4
100
AcDbEntity
  8
标注
 62
     0
100
AcDbTrace
 10
766.6034640786566
 20
172.1817321988323
 30
0.0
 11
766.6034640786566
 21
172.1217321988324
 31
0.0
 12
766.7834640786566
 22
172.1517321988323
 32
0.0
 13
766.7834640786566
 23
172.1517321988323
 33
0.0
  0
MTEXT
  5
6A82
330
69B4
100
AcDbEntity
  8
标注
 62
     0
100
AcDbMText
 10
753.1416333701594
 20
172.1517321988323
 30
0.0
 40
0.18
 41
0.0
 71
     5
 72
     1
  1
\A1;27.2837
 73
     1
 44
1.0
  0
POINT
  5
6A83
330
69B4
100
AcDbEntity
  8
DEFPOINTS
 62
     0
100
AcDbPoint
 10
739.4998026616624
 20
174.233636469115
 30
0.0
  0
POINT
  5
6A84
330
69B4
100
AcDbEntity
  8
DEFPOINTS
 62
     0
100
AcDbPoint
 10
766.7834640786566
 20
174.233636469115
 30
0.0
  0
POINT
  5
6A85
330
69B4
100
AcDbEntity
  8
DEFPOINTS
 62
     0
100
AcDbPoint
 10
766.7834640786566
 20
172.1517321988323
 30
0.0
  0
ENDBLK
  5
69C0
330
69B4
100
AcDbEntity
  8
0
100
AcDbBlockEnd
  0
BLOCK
  5
69CC
330
69C1
100
AcDbEntity
  8
0
100
AcDbBlockBegin
  2
*D193
 70
     1
 10
0.0
 20
0.0
 30
0.0
  3
*D193
  1

  0
LINE
  5
6A86
330
69C1
100
AcDbEntity
  8
标注
 62
     0
370
    -2
100
AcDbLine
 10
766.8459640786566
 20
174.233636469115
 30
0.0
 11
768.9002290187828
 21
174.233636469115
 31
0.0
  0
LINE
  5
6A87
330
69C1
100
AcDbEntity
  8
标注
 62
     0
370
    -2
100
AcDbLine
 10
766.8459640786566
 20
192.1849157894781
 30
0.0
 11
768.9002290187828
 21
192.1849157894781
 31
0.0
  0
LINE
  5
6A88
330
69C1
100
AcDbEntity
  8
标注
 62
     0
370
    -2
100
AcDbLine
 10
768.7202290187827
 20
174.413636469115
 30
0.0
 11
768.7202290187827
 21
183.0292761292966
 31
0.0
  0
LINE
  5
6A89
330
69C1
100
AcDbEntity
  8
标注
 62
     0
370
    -2
100
AcDbLine
 10
768.7202290187827
 20
192.0049157894781
 30
0.0
 11
768.7202290187827
 21
183.3892761292966
 31
0.0
  0
SOLID
  5
6A8A
330
69C1
100
AcDbEntity
  8
标注
 62
     0
100
AcDbTrace
 10
768.6902290187828
 20
174.413636469115
 30
0.0
 11
768.7502290187827
 21
174.413636469115
 31
0.0
 12
768.7202290187827
 22
174.233636469115
 32
0.0
 13
768.7202290187827
 23
174.233636469115
 33
0.0
  0
SOLID
  5
6A8B
330
69C1
100
AcDbEntity
  8
标注
 62
     0
100
AcDbTrace
 10
768.6902290187828
 20
192.0049157894781
 30
0.0
 11
768.7502290187827
 21
192.0049157894781
 31
0.0
 12
768.7202290187827
 22
192.1849157894781
 32
0.0
 13
768.7202290187827
 23
192.1849157894781
 33
0.0
  0
MTEXT
  5
6A8C
330
69C1
100
AcDbEntity
  8
标注
 62
     0
100
AcDbMText
 10
768.7202290187827
 20
183.2092761292967
 30
0.0
 40
0.18
 41
0.0
 71
     5
 72
     1
  1
\A1;17.9513
 73
     1
 44
1.0
  0
POINT
  5
6A8D
330
69C1
100
AcDbEntity
  8
DEFPOINTS
 62
     0
100
AcDbPoint
 10
766.7834640786566
 20
174.233636469115
 30
0.0
  0
POINT
  5
6A8E
330
69C1
100
AcDbEntity
  8
DEFPOINTS
 62
     0
100
AcDbPoint
 10
766.7834640786566
 20
192.1849157894781
 30
0.0
  0
POINT
  5
6A8F
330
69C1
100
AcDbEntity
  8
DEFPOINTS
 62
     0
100
AcDbPoint
 10
768.7202290187827
 20
192.1849157894781
 30
0.0
  0
ENDBLK
  5
69CD
330
69C1
100
AcDbEntity
  8
0
100
AcDbBlockEnd
  0
BLOCK
  5
69D9
330
69CE
100
AcDbEntity
  8
0
100
AcDbBlockBegin
  2
*D194
 70
     1
 10
0.0
 20
0.0
 30
0.0
  3
*D194
  1

  0
LINE
  5
6A90
330
69CE
100
AcDbEntity
  8
标注
 62
     3
370
    -2
100
AcDbLine
 10
738.1600344701941
 20
209.4629338746381
 30
0.0
 11
738.1600344701941
 21
206.5892770895669
 31
0.0
  0
LINE
  5
6A91
330
69CE
100
AcDbEntity
  8
标注
 62
     3
370
    -2
100
AcDbLine
 10
768.1602313202301
 20
209.4629338746381
 30
0.0
 11
768.1602313202301
 21
206.5892770895669
 31
0.0
  0
LINE
  5
6A92
330
69CE
100
AcDbEntity
  8
标注
 62
     3
370
    -2
100
AcDbLine
 10
738.8100344701939
 20
206.9092770895669
 30
0.0
 11
752.472632895212
 21
206.9092770895669
 31
0.0
  0
LINE
  5
6A93
330
69CE
100
AcDbEntity
  8
标注
 62
     3
370
    -2
100
AcDbLine
 10
767.5102313202301
 20
206.9092770895669
 30
0.0
 11
753.8476328952119
 21
206.9092770895669
 31
0.0
  0
SOLID
  5
6A94
330
69CE
100
AcDbEntity
  8
标注
 62
     3
100
AcDbTrace
 10
738.8100344701939
 20
207.0176104229002
 30
0.0
 11
738.8100344701939
 21
206.8009437562336
 31
0.0
 12
738.1600344701941
 22
206.9092770895669
 32
0.0
 13
738.1600344701941
 23
206.9092770895669
 33
0.0
  0
SOLID
  5
6A95
330
69CE
100
AcDbEntity
  8
标注
 62
     3
100
AcDbTrace
 10
767.5102313202301
 20
207.0176104229002
 30
0.0
 11
767.5102313202301
 21
206.8009437562336
 31
0.0
 12
768.1602313202301
 22
206.9092770895669
 32
0.0
 13
768.1602313202301
 23
206.9092770895669
 33
0.0
  0
MTEXT
  5
6A96
330
69CE
100
AcDbEntity
  8
标注
100
AcDbMText
 10
753.1601328952119
 20
206.9092770895669
 30
0.0
 40
0.65
 41
0.0
 71
     5
 72
     1
  1
\A1;30
 73
     1
 44
1.0
  0
POINT
  5
6A97
330
69CE
100
AcDbEntity
  8
DEFPOINTS
 62
     0
100
AcDbPoint
 10
738.1600344701941
 20
210.3429338746381
 30
0.0
  0
POINT
  5
6A98
330
69CE
100
AcDbEntity
  8
DEFPOINTS
 62
     0
100
AcDbPoint
 10
768.1602313202301
 20
210.3429338746381
 30
0.0
  0
POINT
  5
6A99
330
69CE
100
AcDbEntity
  8
DEFPOINTS
 62
     0
100
AcDbPoint
 10
768.1602313202301
 20
206.9092770895669
 30
0.0
  0
ENDBLK
  5
69DA
330
69CE
100
AcDbEntity
  8
0
100
AcDbBlockEnd
  0
BLOCK
  5
69E6
330
69DB
100
AcDbEntity
  8
0
100
AcDbBlockBegin
  2
*D195
 70
     1
 10
0.0
 20
0.0
 30
0.0
  3
*D195
  1

  0
LINE
  5
6A9A
330
69DB
100
AcDbEntity
  8
标注
 62
     3
370
    -2
100
AcDbLine
 10
769.0402313202301
 20
210.3429338746381
 30
0.0
 11
772.7794739863894
 21
210.3429338746381
 31
0.0
  0
LINE
  5
6A9B
330
69DB
100
AcDbEntity
  8
标注
 62
     3
370
    -2
100
AcDbLine
 10
769.0402313202301
 20
229.5929338744115
 30
0.0
 11
772.7794739863894
 21
229.5929338744115
 31
0.0
  0
LINE
  5
6A9C
330
69DB
100
AcDbEntity
  8
标注
 62
     3
370
    -2
100
AcDbLine
 10
772.4594739863894
 20
210.9929338746381
 30
0.0
 11
772.4594739863894
 21
219.0096005411914
 31
0.0
  0
LINE
  5
6A9D
330
69DB
100
AcDbEntity
  8
标注
 62
     3
370
    -2
100
AcDbLine
 10
772.4594739863894
 20
228.9429338744114
 30
0.0
 11
772.4594739863894
 21
220.9262672078581
 31
0.0
  0
SOLID
  5
6A9E
330
69DB
100
AcDbEntity
  8
标注
 62
     3
100
AcDbTrace
 10
772.3511406530562
 20
210.9929338746381
 30
0.0
 11
772.5678073197228
 21
210.9929338746381
 31
0.0
 12
772.4594739863894
 22
210.3429338746381
 32
0.0
 13
772.4594739863894
 23
210.3429338746381
 33
0.0
  0
SOLID
  5
6A9F
330
69DB
100
AcDbEntity
  8
标注
 62
     3
100
AcDbTrace
 10
772.3511406530562
 20
228.9429338744114
 30
0.0
 11
772.5678073197228
 21
228.9429338744114
 31
0.0
 12
772.4594739863894
 22
229.5929338744115
 32
0.0
 13
772.4594739863894
 23
229.5929338744115
 33
0.0
  0
MTEXT
  5
6AA0
330
69DB
100
AcDbEntity
  8
标注
100
AcDbMText
 10
772.4594739863894
 20
219.9679338745249
 30
0.0
 40
0.65
 41
0.0
 71
     5
 72
     1
  1
\A1;19{\H1.000000x;\S1/4;}
 11
0.0000000000000001
 21
1.0
 31
0.0
 73
     1
 44
1.0
  0
POINT
  5
6AA1
330
69DB
100
AcDbEntity
  8
DEFPOINTS
 62
     0
100
AcDbPoint
 10
768.1602313202301
 20
210.3429338746381
 30
0.0
  0
POINT
  5
6AA2
330
69DB
100
AcDbEntity
  8
DEFPOINTS
 62
     0
100
AcDbPoint
 10
768.1602313202301
 20
229.5929338744115
 30
0.0
  0
POINT
  5
6AA3
330
69DB
100
AcDbEntity
  8
DEFPOINTS
 62
     0
100
AcDbPoint
 10
772.4594739863894
 20
229.5929338744115
 30
0.0
  0
ENDBLK
  5
69E7
330
69DB
100
AcDbEntity
  8
0
100
AcDbBlockEnd
  0
BLOCK
  5
6AAC
330
6AAB
100
AcDbEntity
  8
0
100
AcDbBlockBegin
  2
*D196
 70
     1
 10
0.0
 20
0.0
 30
0.0
  3
*D196
  1

  0
LINE
  5
6AAD
330
6AAB
100
AcDbEntity
  8
标注
  6
Continuous
370
    -2
100
AcDbLine
 10
1410.430135902736
 20
845.6893549877188
 30
0.0
 11
1428.777648620152
 21
845.6893549877188
 31
0.0
  0
LINE
  5
6AAE
330
6AAB
100
AcDbEntity
  8
标注
  6
Continuous
370
    -2
100
AcDbLine
 10
1425.308157327677
 20
866.4393134876366
 30
0.0
 11
1428.777648620152
 21
866.4393134876366
 31
0.0
  0
LINE
  5
6AAF
330
6AAB
100
AcDbEntity
  8
标注
  6
Continuous
370
    -2
100
AcDbLine
 10
1428.457648620153
 20
846.3393549877192
 30
0.0
 11
1428.457648620153
 21
854.3754358747857
 31
0.0
  0
LINE
  5
6AB0
330
6AAB
100
AcDbEntity
  8
标注
  6
Continuous
370
    -2
100
AcDbLine
 10
1428.457648620153
 20
865.7893134876367
 30
0.0
 11
1428.457648620153
 21
857.7532326005702
 31
0.0
  0
SOLID
  5
6AB1
330
6AAB
100
AcDbEntity
  8
标注
100
AcDbTrace
 10
1428.349315286819
 20
846.3393549877192
 30
0.0
 11
1428.565981953486
 21
846.3393549877192
 31
0.0
 12
1428.457648620153
 22
845.6893549877188
 32
0.0
 13
1428.457648620153
 23
845.6893549877188
 33
0.0
  0
SOLID
  5
6AB2
330
6AAB
100
AcDbEntity
  8
标注
100
AcDbTrace
 10
1428.349315286819
 20
865.7893134876367
 30
0.0
 11
1428.565981953486
 21
865.7893134876367
 31
0.0
 12
1428.457648620153
 22
866.4393134876366
 32
0.0
 13
1428.457648620153
 23
866.4393134876366
 33
0.0
  0
MTEXT
  5
6AB3
330
6AAB
100
AcDbEntity
  8
标注
100
AcDbMText
 10
1428.457648620152
 20
856.064334237678
 30
0.0
 40
0.65
 41
0.0
 71
     5
 72
     1
  1
\A1;20 3/4"
 11
0.0000000000000001
 21
1.0
 31
0.0
 73
     1
 44
1.0
  0
POINT
  5
6AB4
330
6AAB
100
AcDbEntity
  8
DEFPOINTS
 62
     0
100
AcDbPoint
 10
1409.550135902736
 20
845.6893549877188
 30
0.0
  0
POINT
  5
6AB5
330
6AAB
100
AcDbEntity
  8
DEFPOINTS
 62
     0
100
AcDbPoint
 10
1424.428157327677
 20
866.4393134876366
 30
0.0
  0
POINT
  5
6AB6
330
6AAB
100
AcDbEntity
  8
DEFPOINTS
 62
     0
100
AcDbPoint
 10
1428.457648620153
 20
866.4393134876366
 30
0.0
  0
ENDBLK
  5
6AB7
330
6AAB
100
AcDbEntity
  8
0
100
AcDbBlockEnd
  0
BLOCK
  5
6ACE
330
6AC3
100
AcDbEntity
  8
0
100
AcDbBlockBegin
  2
*D198
 70
     1
 10
0.0
 20
0.0
 30
0.0
  3
*D198
  1

  0
LINE
  5
6AD0
330
6AC3
100
AcDbEntity
  8
标注
  6
Continuous
 62
     3
370
    -2
100
AcDbLine
 10
777.2115150631353
 20
227.4302956794838
 30
0.0
 11
795.5590277805523
 21
227.4302956794838
 31
0.0
  0
LINE
  5
6AD1
330
6AC3
100
AcDbEntity
  8
标注
  6
Continuous
 62
     3
370
    -2
100
AcDbLine
 10
792.0895364880763
 20
248.1802541794016
 30
0.0
 11
795.5590277805523
 21
248.1802541794016
 31
0.0
  0
LINE
  5
6AD2
330
6AC3
100
AcDbEntity
  8
标注
  6
Continuous
 62
     3
370
    -2
100
AcDbLine
 10
795.2390277805522
 20
228.0802956794838
 30
0.0
 11
795.2390277805522
 21
236.7927749294427
 31
0.0
  0
LINE
  5
6AD3
330
6AC3
100
AcDbEntity
  8
标注
  6
Continuous
 62
     3
370
    -2
100
AcDbLine
 10
795.2390277805522
 20
247.5302541794015
 30
0.0
 11
795.2390277805522
 21
238.8177749294427
 31
0.0
  0
SOLID
  5
6AD4
330
6AC3
100
AcDbEntity
  8
标注
 62
     3
100
AcDbTrace
 10
795.1306944472189
 20
228.0802956794838
 30
0.0
 11
795.3473611138856
 21
228.0802956794838
 31
0.0
 12
795.2390277805522
 22
227.4302956794838
 32
0.0
 13
795.2390277805522
 23
227.4302956794838
 33
0.0
  0
SOLID
  5
6AD5
330
6AC3
100
AcDbEntity
  8
标注
 62
     3
100
AcDbTrace
 10
795.1306944472189
 20
247.5302541794015
 30
0.0
 11
795.3473611138856
 21
247.5302541794015
 31
0.0
 12
795.2390277805522
 22
248.1802541794016
 32
0.0
 13
795.2390277805522
 23
248.1802541794016
 33
0.0
  0
MTEXT
  5
6AD6
330
6AC3
100
AcDbEntity
  8
标注
100
AcDbMText
 10
795.2390277805522
 20
237.8052749294428
 30
0.0
 40
0.65
 41
0.0
 71
     5
 72
     1
  1
\A1;20{\H1.000000x;\S3/4;}
 11
0.0000000000000001
 21
1.0
 31
0.0
 73
     1
 44
1.0
  0
POINT
  5
6AD7
330
6AC3
100
AcDbEntity
  8
DEFPOINTS
 62
     0
100
AcDbPoint
 10
776.3315150631354
 20
227.4302956794838
 30
0.0
  0
POINT
  5
6AD8
330
6AC3
100
AcDbEntity
  8
DEFPOINTS
 62
     0
100
AcDbPoint
 10
791.2095364880763
 20
248.1802541794016
 30
0.0
  0
POINT
  5
6AD9
330
6AC3
100
AcDbEntity
  8
DEFPOINTS
 62
     0
100
AcDbPoint
 10
795.2390277805522
 20
248.1802541794016
 30
0.0
  0
ENDBLK
  5
6ACF
330
6AC3
100
AcDbEntity
  8
0
100
AcDbBlockEnd
  0
BLOCK
  5
6ADB
330
6ADA
100
AcDbEntity
  8
0
100
AcDbBlockBegin
  2
*D199
 70
     1
 10
0.0
 20
0.0
 30
0.0
  3
*D199
  1

  0
LINE
  5
6ADC
330
6ADA
100
AcDbEntity
  8
标注
  6
Continuous
370
    -2
100
AcDbLine
 10
1410.430135902736
 20
845.6893549877188
 30
0.0
 11
1428.777648620152
 21
845.6893549877188
 31
0.0
  0
LINE
  5
6ADD
330
6ADA
100
AcDbEntity
  8
标注
  6
Continuous
370
    -2
100
AcDbLine
 10
1425.308157327677
 20
866.4393134876366
 30
0.0
 11
1428.777648620152
 21
866.4393134876366
 31
0.0
  0
LINE
  5
6ADE
330
6ADA
100
AcDbEntity
  8
标注
  6
Continuous
370
    -2
100
AcDbLine
 10
1428.457648620153
 20
846.3393549877192
 30
0.0
 11
1428.457648620153
 21
854.3754358747857
 31
0.0
  0
LINE
  5
6ADF
330
6ADA
100
AcDbEntity
  8
标注
  6
Continuous
370
    -2
100
AcDbLine
 10
1428.457648620153
 20
865.7893134876367
 30
0.0
 11
1428.457648620153
 21
857.7532326005702
 31
0.0
  0
SOLID
  5
6AE0
330
6ADA
100
AcDbEntity
  8
标注
100
AcDbTrace
 10
1428.349315286819
 20
846.3393549877192
 30
0.0
 11
1428.565981953486
 21
846.3393549877192
 31
0.0
 12
1428.457648620153
 22
845.6893549877188
 32
0.0
 13
1428.457648620153
 23
845.6893549877188
 33
0.0
  0
SOLID
  5
6AE1
330
6ADA
100
AcDbEntity
  8
标注
100
AcDbTrace
 10
1428.349315286819
 20
865.7893134876367
 30
0.0
 11
1428.565981953486
 21
865.7893134876367
 31
0.0
 12
1428.457648620153
 22
866.4393134876366
 32
0.0
 13
1428.457648620153
 23
866.4393134876366
 33
0.0
  0
MTEXT
  5
6AE2
330
6ADA
100
AcDbEntity
  8
标注
100
AcDbMText
 10
1428.457648620152
 20
856.064334237678
 30
0.0
 40
0.65
 41
0.0
 71
     5
 72
     1
  1
\A1;20 3/4"
 11
0.0000000000000001
 21
1.0
 31
0.0
 73
     1
 44
1.0
  0
POINT
  5
6AE3
330
6ADA
100
AcDbEntity
  8
DEFPOINTS
 62
     0
100
AcDbPoint
 10
1409.550135902736
 20
845.6893549877188
 30
0.0
  0
POINT
  5
6AE4
330
6ADA
100
AcDbEntity
  8
DEFPOINTS
 62
     0
100
AcDbPoint
 10
1424.428157327677
 20
866.4393134876366
 30
0.0
  0
POINT
  5
6AE5
330
6ADA
100
AcDbEntity
  8
DEFPOINTS
 62
     0
100
AcDbPoint
 10
1428.457648620153
 20
866.4393134876366
 30
0.0
  0
ENDBLK
  5
6AE6
330
6ADA
100
AcDbEntity
  8
0
100
AcDbBlockEnd
  0
BLOCK
  5
6AFA
330
6AEF
100
AcDbEntity
  8
0
100
AcDbBlockBegin
  2
*D201
 70
     1
 10
0.0
 20
0.0
 30
0.0
  3
*D201
  1

  0
LINE
  5
6AFC
330
6AEF
100
AcDbEntity
  8
标注
  6
Continuous
 62
     3
370
    -2
100
AcDbLine
 10
775.327914575385
 20
221.5413200530964
 30
0.0
 11
793.6754272928021
 21
221.5413200530964
 31
0.0
  0
LINE
  5
6AFD
330
6AEF
100
AcDbEntity
  8
标注
  6
Continuous
 62
     3
370
    -2
100
AcDbLine
 10
790.205936000326
 20
242.2912785530141
 30
0.0
 11
793.6754272928021
 21
242.2912785530141
 31
0.0
  0
LINE
  5
6AFE
330
6AEF
100
AcDbEntity
  8
标注
  6
Continuous
 62
     3
370
    -2
100
AcDbLine
 10
793.355427292802
 20
222.2493200530963
 30
0.0
 11
793.355427292802
 21
230.9037993030552
 31
0.0
  0
LINE
  5
6AFF
330
6AEF
100
AcDbEntity
  8
标注
  6
Continuous
 62
     3
370
    -2
100
AcDbLine
 10
793.355427292802
 20
241.5832785530141
 30
0.0
 11
793.355427292802
 21
232.9287993030552
 31
0.0
  0
SOLID
  5
6B00
330
6AEF
100
AcDbEntity
  8
标注
 62
     3
100
AcDbTrace
 10
793.2374272928019
 20
222.2493200530963
 30
0.0
 11
793.473427292802
 21
222.2493200530963
 31
0.0
 12
793.355427292802
 22
221.5413200530964
 32
0.0
 13
793.355427292802
 23
221.5413200530964
 33
0.0
  0
SOLID
  5
6B01
330
6AEF
100
AcDbEntity
  8
标注
 62
     3
100
AcDbTrace
 10
793.2374272928019
 20
241.5832785530141
 30
0.0
 11
793.473427292802
 21
241.5832785530141
 31
0.0
 12
793.355427292802
 22
242.2912785530141
 32
0.0
 13
793.355427292802
 23
242.2912785530141
 33
0.0
  0
MTEXT
  5
6B02
330
6AEF
100
AcDbEntity
  8
标注
100
AcDbMText
 10
793.355427292802
 20
231.9162993030553
 30
0.0
 40
0.65
 41
0.0
 71
     5
 72
     1
  1
\A1;20{\H1.000000x;\S3/4;}
 11
0.0000000000000001
 21
1.0
 31
0.0
 73
     1
 44
1.0
  0
POINT
  5
6B03
330
6AEF
100
AcDbEntity
  8
DEFPOINTS
 62
     0
100
AcDbPoint
 10
774.447914575385
 20
221.5413200530964
 30
0.0
  0
POINT
  5
6B04
330
6AEF
100
AcDbEntity
  8
DEFPOINTS
 62
     0
100
AcDbPoint
 10
789.325936000326
 20
242.2912785530141
 30
0.0
  0
POINT
  5
6B05
330
6AEF
100
AcDbEntity
  8
DEFPOINTS
 62
     0
100
AcDbPoint
 10
793.355427292802
 20
242.2912785530141
 30
0.0
  0
ENDBLK
  5
6AFB
330
6AEF
100
AcDbEntity
  8
0
100
AcDbBlockEnd
  0
BLOCK
  5
6B14
330
6B09
100
AcDbEntity
  8
0
100
AcDbBlockBegin
  2
*D202
 70
     1
 10
0.0
 20
0.0
 30
0.0
  3
*D202
  1

  0
LINE
  5
6B0A
330
6B09
100
AcDbEntity
  8
标注
 62
     3
370
    -2
100
AcDbLine
 10
769.0402313202301
 20
246.7835233741811
 30
0.0
 11
770.3064430920893
 21
246.7835233741811
 31
0.0
  0
LINE
  5
6B0B
330
6B09
100
AcDbEntity
  8
标注
 62
     3
370
    -2
100
AcDbLine
 10
769.0402313202301
 20
237.7835233742822
 30
0.0
 11
770.3064430920893
 21
237.7835233742822
 31
0.0
  0
LINE
  5
6B0C
330
6B09
100
AcDbEntity
  8
标注
 62
     3
370
    -2
100
AcDbLine
 10
769.9864430920893
 20
246.1335233741811
 30
0.0
 11
769.9864430920893
 21
242.7970124601798
 31
0.0
  0
LINE
  5
6B0D
330
6B09
100
AcDbEntity
  8
标注
 62
     3
370
    -2
100
AcDbLine
 10
769.9864430920893
 20
238.4335233742822
 30
0.0
 11
769.9864430920893
 21
241.7700342882835
 31
0.0
  0
SOLID
  5
6B0E
330
6B09
100
AcDbEntity
  8
标注
 62
     3
100
AcDbTrace
 10
769.8781097587559
 20
246.1335233741811
 30
0.0
 11
770.0947764254226
 21
246.1335233741811
 31
0.0
 12
769.9864430920893
 22
246.7835233741811
 32
0.0
 13
769.9864430920893
 23
246.7835233741811
 33
0.0
  0
SOLID
  5
6B0F
330
6B09
100
AcDbEntity
  8
标注
 62
     3
100
AcDbTrace
 10
769.8781097587559
 20
238.4335233742822
 30
0.0
 11
770.0947764254226
 21
238.4335233742822
 31
0.0
 12
769.9864430920893
 22
237.7835233742822
 32
0.0
 13
769.9864430920893
 23
237.7835233742822
 33
0.0
  0
MTEXT
  5
6B10
330
6B09
100
AcDbEntity
  8
标注
100
AcDbMText
 10
769.9864430920893
 20
242.2835233742318
 30
0.0
 40
0.65
 41
0.0
 71
     5
 72
     1
  1
\A1;9
 11
0.0000000000000001
 21
1.0
 31
0.0
 73
     1
 44
1.0
  0
POINT
  5
6B11
330
6B09
100
AcDbEntity
  8
DEFPOINTS
 62
     0
100
AcDbPoint
 10
768.1602313202301
 20
246.7835233741811
 30
0.0
  0
POINT
  5
6B12
330
6B09
100
AcDbEntity
  8
DEFPOINTS
 62
     0
100
AcDbPoint
 10
768.1602313202301
 20
237.7835233742822
 30
0.0
  0
POINT
  5
6B13
330
6B09
100
AcDbEntity
  8
DEFPOINTS
 62
     0
100
AcDbPoint
 10
769.9864430920893
 20
237.7835233742822
 30
0.0
  0
ENDBLK
  5
6B15
330
6B09
100
AcDbEntity
  8
0
100
AcDbBlockEnd
  0
BLOCK
  5
6B22
330
6B17
100
AcDbEntity
  8
0
100
AcDbBlockBegin
  2
*D203
 70
     1
 10
0.0
 20
0.0
 30
0.0
  3
*D203
  1

  0
LINE
  5
6B18
330
6B17
100
AcDbEntity
  8
标注
 62
     3
370
    -2
100
AcDbLine
 10
754.0401328952123
 20
236.7047832168128
 30
0.0
 11
772.2679555131544
 21
236.7047832168128
 31
0.0
  0
LINE
  5
6B19
330
6B17
100
AcDbEntity
  8
标注
 62
     3
370
    -2
100
AcDbLine
 10
769.0402313202301
 20
246.7835233741811
 30
0.0
 11
772.2679555131544
 21
246.7835233741811
 31
0.0
  0
LINE
  5
6B1A
330
6B17
100
AcDbEntity
  8
标注
 62
     3
370
    -2
100
AcDbLine
 10
771.9479555131544
 20
237.3547832168128
 30
0.0
 11
771.9479555131544
 21
240.2516737593442
 31
0.0
  0
LINE
  5
6B1B
330
6B17
100
AcDbEntity
  8
标注
 62
     3
370
    -2
100
AcDbLine
 10
771.9479555131544
 20
246.1335233741811
 30
0.0
 11
771.9479555131544
 21
243.2366328316498
 31
0.0
  0
SOLID
  5
6B1C
330
6B17
100
AcDbEntity
  8
标注
 62
     3
100
AcDbTrace
 10
771.839622179821
 20
237.3547832168128
 30
0.0
 11
772.0562888464877
 21
237.3547832168128
 31
0.0
 12
771.9479555131544
 22
236.7047832168128
 32
0.0
 13
771.9479555131544
 23
236.7047832168128
 33
0.0
  0
SOLID
  5
6B1D
330
6B17
100
AcDbEntity
  8
标注
 62
     3
100
AcDbTrace
 10
771.839622179821
 20
246.1335233741811
 30
0.0
 11
772.0562888464877
 21
246.1335233741811
 31
0.0
 12
771.9479555131544
 22
246.7835233741811
 32
0.0
 13
771.9479555131544
 23
246.7835233741811
 33
0.0
  0
MTEXT
  5
6B1E
330
6B17
100
AcDbEntity
  8
标注
100
AcDbMText
 10
771.9479555131544
 20
241.7441532954971
 30
0.0
 40
0.65
 41
0.0
 71
     5
 72
     1
  1
\A1;10 1/8
 11
0.0000000000000001
 21
1.0
 31
0.0
 73
     1
 44
1.0
  0
POINT
  5
6B1F
330
6B17
100
AcDbEntity
  8
DEFPOINTS
 62
     0
100
AcDbPoint
 10
753.1601328952123
 20
236.7047832168128
 30
0.0
  0
POINT
  5
6B20
330
6B17
100
AcDbEntity
  8
DEFPOINTS
 62
     0
100
AcDbPoint
 10
768.1602313202301
 20
246.7835233741811
 30
0.0
  0
POINT
  5
6B21
330
6B17
100
AcDbEntity
  8
DEFPOINTS
 62
     0
100
AcDbPoint
 10
771.9479555131544
 20
246.7835233741811
 30
0.0
  0
ENDBLK
  5
6B23
330
6B17
100
AcDbEntity
  8
0
100
AcDbBlockEnd
  0
BLOCK
  5
6B30
330
6B25
100
AcDbEntity
  8
0
100
AcDbBlockBegin
  2
*D204
 70
     1
 10
0.0
 20
0.0
 30
0.0
  3
*D204
  1

  0
LINE
  5
6B26
330
6B25
100
AcDbEntity
  8
标注
 62
     3
370
    -2
100
AcDbLine
 10
767.6032234462398
 20
228.0929338744378
 30
0.0
 11
770.2949677484244
 21
228.0929338744378
 31
0.0
  0
LINE
  5
6B27
330
6B25
100
AcDbEntity
  8
标注
 62
     3
370
    -2
100
AcDbLine
 10
767.6032234462398
 20
212.092933874624
 30
0.0
 11
770.2949677484244
 21
212.092933874624
 31
0.0
  0
LINE
  5
6B28
330
6B25
100
AcDbEntity
  8
标注
 62
     3
370
    -2
100
AcDbLine
 10
769.9749677484244
 20
227.4429338744378
 30
0.0
 11
769.9749677484244
 21
220.8285580218706
 31
0.0
  0
LINE
  5
6B29
330
6B25
100
AcDbEntity
  8
标注
 62
     3
370
    -2
100
AcDbLine
 10
769.9749677484244
 20
212.742933874624
 30
0.0
 11
769.9749677484244
 21
219.3573097271912
 31
0.0
  0
SOLID
  5
6B2A
330
6B25
100
AcDbEntity
  8
标注
 62
     3
100
AcDbTrace
 10
769.866634415091
 20
227.4429338744378
 30
0.0
 11
770.0833010817578
 21
227.4429338744378
 31
0.0
 12
769.9749677484244
 22
228.0929338744378
 32
0.0
 13
769.9749677484244
 23
228.0929338744378
 33
0.0
  0
SOLID
  5
6B2B
330
6B25
100
AcDbEntity
  8
标注
 62
     3
100
AcDbTrace
 10
769.866634415091
 20
212.742933874624
 30
0.0
 11
770.0833010817578
 21
212.742933874624
 31
0.0
 12
769.9749677484244
 22
212.092933874624
 32
0.0
 13
769.9749677484244
 23
212.092933874624
 33
0.0
  0
MTEXT
  5
6B2C
330
6B25
100
AcDbEntity
  8
标注
100
AcDbMText
 10
769.9749677484244
 20
220.092933874531
 30
0.0
 40
0.65
 41
0.0
 71
     5
 72
     1
  1
\A1;16
 11
0.0000000000000001
 21
1.0
 31
0.0
 73
     1
 44
1.0
  0
POINT
  5
6B2D
330
6B25
100
AcDbEntity
  8
DEFPOINTS
 62
     0
100
AcDbPoint
 10
766.7232234462398
 20
228.0929338744378
 30
0.0
  0
POINT
  5
6B2E
330
6B25
100
AcDbEntity
  8
DEFPOINTS
 62
     0
100
AcDbPoint
 10
766.7232234462398
 20
212.092933874624
 30
0.0
  0
POINT
  5
6B2F
330
6B25
100
AcDbEntity
  8
DEFPOINTS
 62
     0
100
AcDbPoint
 10
769.9749677484244
 20
212.092933874624
 30
0.0
  0
ENDBLK
  5
6B31
330
6B25
100
AcDbEntity
  8
0
100
AcDbBlockEnd
  0
BLOCK
  5
6B3E
330
6B33
100
AcDbEntity
  8
0
100
AcDbBlockBegin
  2
*D205
 70
     1
 10
0.0
 20
0.0
 30
0.0
  3
*D205
  1

  0
LINE
  5
6B40
330
6B33
100
AcDbEntity
  8
标注
 62
     3
370
    -2
100
AcDbLine
 10
769.0402313202301
 20
229.5929338744115
 30
0.0
 11
772.1670584550055
 21
229.5929338744115
 31
0.0
  0
LINE
  5
6B41
330
6B33
100
AcDbEntity
  8
标注
 62
     3
370
    -2
100
AcDbLine
 10
754.0401328952131
 20
209.5929338746603
 30
0.0
 11
772.1670584550055
 21
209.5929338746603
 31
0.0
  0
LINE
  5
6B42
330
6B33
100
AcDbEntity
  8
标注
 62
     3
370
    -2
100
AcDbLine
 10
771.8470584550055
 20
228.9429338744115
 30
0.0
 11
771.8470584550055
 21
220.3635853070052
 31
0.0
  0
LINE
  5
6B43
330
6B33
100
AcDbEntity
  8
标注
 62
     3
370
    -2
100
AcDbLine
 10
771.8470584550055
 20
210.2429338746603
 30
0.0
 11
771.8470584550055
 21
218.8222824420666
 31
0.0
  0
SOLID
  5
6B44
330
6B33
100
AcDbEntity
  8
标注
 62
     3
100
AcDbTrace
 10
771.7387251216721
 20
228.9429338744115
 30
0.0
 11
771.9553917883388
 21
228.9429338744115
 31
0.0
 12
771.8470584550055
 22
229.5929338744115
 32
0.0
 13
771.8470584550055
 23
229.5929338744115
 33
0.0
  0
SOLID
  5
6B45
330
6B33
100
AcDbEntity
  8
标注
 62
     3
100
AcDbTrace
 10
771.7387251216721
 20
210.2429338746603
 30
0.0
 11
771.9553917883388
 21
210.2429338746603
 31
0.0
 12
771.8470584550055
 22
209.5929338746603
 32
0.0
 13
771.8470584550055
 23
209.5929338746603
 33
0.0
  0
MTEXT
  5
6B46
330
6B33
100
AcDbEntity
  8
标注
100
AcDbMText
 10
771.8470584550055
 20
219.592933874536
 30
0.0
 40
0.65
 41
0.0
 71
     5
 72
     1
  1
\A1;20
 11
0.0000000000000001
 21
1.0
 31
0.0
 73
     1
 44
1.0
  0
POINT
  5
6B47
330
6B33
100
AcDbEntity
  8
DEFPOINTS
 62
     0
100
AcDbPoint
 10
768.1602313202301
 20
229.5929338744115
 30
0.0
  0
POINT
  5
6B48
330
6B33
100
AcDbEntity
  8
DEFPOINTS
 62
     0
100
AcDbPoint
 10
753.1601328952131
 20
209.5929338746603
 30
0.0
  0
POINT
  5
6B49
330
6B33
100
AcDbEntity
  8
DEFPOINTS
 62
     0
100
AcDbPoint
 10
771.8470584550055
 20
209.5929338746603
 30
0.0
  0
ENDBLK
  5
6B3F
330
6B33
100
AcDbEntity
  8
0
100
AcDbBlockEnd
  0
BLOCK
  5
6B56
330
6B4B
100
AcDbEntity
  8
0
100
AcDbBlockBegin
  2
*D206
 70
     1
 10
0.0
 20
0.0
 30
0.0
  3
*D206
  1

  0
LINE
  5
6B4C
330
6B4B
100
AcDbEntity
  8
标注
 62
     3
370
    -2
100
AcDbLine
 10
766.7232234462398
 20
211.212933874624
 30
0.0
 11
766.7232234462398
 21
207.7203638852903
 31
0.0
  0
LINE
  5
6B4D
330
6B4B
100
AcDbEntity
  8
标注
 62
     3
370
    -2
100
AcDbLine
 10
739.5970423442003
 20
211.212933874624
 30
0.0
 11
739.5970423442003
 21
207.7203638852903
 31
0.0
  0
LINE
  5
6B4E
330
6B4B
100
AcDbEntity
  8
标注
 62
     3
370
    -2
100
AcDbLine
 10
766.0732234462398
 20
208.0403638852903
 30
0.0
 11
754.6889698665706
 21
208.0403638852903
 31
0.0
  0
LINE
  5
6B4F
330
6B4B
100
AcDbEntity
  8
标注
 62
     3
370
    -2
100
AcDbLine
 10
740.2470423442003
 20
208.0403638852903
 30
0.0
 11
751.6312959238693
 21
208.0403638852903
 31
0.0
  0
SOLID
  5
6B50
330
6B4B
100
AcDbEntity
  8
标注
 62
     3
100
AcDbTrace
 10
766.0732234462398
 20
208.1486972186236
 30
0.0
 11
766.0732234462398
 21
207.932030551957
 31
0.0
 12
766.7232234462398
 22
208.0403638852903
 32
0.0
 13
766.7232234462398
 23
208.0403638852903
 33
0.0
  0
SOLID
  5
6B51
330
6B4B
100
AcDbEntity
  8
标注
 62
     3
100
AcDbTrace
 10
740.2470423442003
 20
208.1486972186236
 30
0.0
 11
740.2470423442003
 21
207.932030551957
 31
0.0
 12
739.5970423442003
 22
208.0403638852903
 32
0.0
 13
739.5970423442003
 23
208.0403638852903
 33
0.0
  0
MTEXT
  5
6B52
330
6B4B
100
AcDbEntity
  8
标注
100
AcDbMText
 10
753.16013289522
 20
208.0403638852903
 30
0.0
 40
0.65
 41
0.0
 71
     5
 72
     1
  1
\A1;27 1/8
 73
     1
 44
1.0
  0
POINT
  5
6B53
330
6B4B
100
AcDbEntity
  8
DEFPOINTS
 62
     0
100
AcDbPoint
 10
766.7232234462398
 20
212.092933874624
 30
0.0
  0
POINT
  5
6B54
330
6B4B
100
AcDbEntity
  8
DEFPOINTS
 62
     0
100
AcDbPoint
 10
739.5970423442003
 20
212.092933874624
 30
0.0
  0
POINT
  5
6B55
330
6B4B
100
AcDbEntity
  8
DEFPOINTS
 62
     0
100
AcDbPoint
 10
739.5970423442003
 20
208.0403638852903
 30
0.0
  0
ENDBLK
  5
6B57
330
6B4B
100
AcDbEntity
  8
0
100
AcDbBlockEnd
  0
BLOCK
  5
6B64
330
6B59
100
AcDbEntity
  8
0
100
AcDbBlockBegin
  2
*D207
 70
     1
 10
0.0
 20
0.0
 30
0.0
  3
*D207
  1

  0
LINE
  5
6B5A
330
6B59
100
AcDbEntity
  8
标注
 62
     3
370
    -2
100
AcDbLine
 10
738.1600344673695
 20
209.4629338749348
 30
0.0
 11
738.1600344673695
 21
206.0159930599453
 31
0.0
  0
LINE
  5
6B5B
330
6B59
100
AcDbEntity
  8
标注
 62
     3
370
    -2
100
AcDbLine
 10
768.1602313230563
 20
209.4629338749348
 30
0.0
 11
768.1602313230563
 21
206.0159930599453
 31
0.0
  0
LINE
  5
6B5C
330
6B59
100
AcDbEntity
  8
标注
 62
     3
370
    -2
100
AcDbLine
 10
738.8100344673695
 20
206.3359930599453
 30
0.0
 11
752.3954671380505
 21
206.3359930599453
 31
0.0
  0
LINE
  5
6B5D
330
6B59
100
AcDbEntity
  8
标注
 62
     3
370
    -2
100
AcDbLine
 10
767.5102313230564
 20
206.3359930599453
 30
0.0
 11
753.9247986523752
 21
206.3359930599453
 31
0.0
  0
SOLID
  5
6B5E
330
6B59
100
AcDbEntity
  8
标注
 62
     3
100
AcDbTrace
 10
738.8100344673695
 20
206.4443263932786
 30
0.0
 11
738.8100344673695
 21
206.2276597266119
 31
0.0
 12
738.1600344673695
 22
206.3359930599453
 32
0.0
 13
738.1600344673695
 23
206.3359930599453
 33
0.0
  0
SOLID
  5
6B5F
330
6B59
100
AcDbEntity
  8
标注
 62
     3
100
AcDbTrace
 10
767.5102313230564
 20
206.4443263932786
 30
0.0
 11
767.5102313230564
 21
206.2276597266119
 31
0.0
 12
768.1602313230563
 22
206.3359930599453
 32
0.0
 13
768.1602313230563
 23
206.3359930599453
 33
0.0
  0
MTEXT
  5
6B60
330
6B59
100
AcDbEntity
  8
标注
100
AcDbMText
 10
753.1601328952128
 20
206.3359930599453
 30
0.0
 40
0.65
 41
0.0
 71
     5
 72
     1
  1
\A1;30
 73
     1
 44
1.0
  0
POINT
  5
6B61
330
6B59
100
AcDbEntity
  8
DEFPOINTS
 62
     0
100
AcDbPoint
 10
738.1600344673695
 20
210.3429338749348
 30
0.0
  0
POINT
  5
6B62
330
6B59
100
AcDbEntity
  8
DEFPOINTS
 62
     0
100
AcDbPoint
 10
768.1602313230563
 20
210.3429338749348
 30
0.0
  0
POINT
  5
6B63
330
6B59
100
AcDbEntity
  8
DEFPOINTS
 62
     0
100
AcDbPoint
 10
768.1602313230563
 20
206.3359930599453
 30
0.0
  0
ENDBLK
  5
6B65
330
6B59
100
AcDbEntity
  8
0
100
AcDbBlockEnd
  0
BLOCK
  5
6B74
330
6B69
100
AcDbEntity
  8
0
100
AcDbBlockBegin
  2
*D208
 70
     1
 10
0.0
 20
0.0
 30
0.0
  3
*D208
  1

  0
LINE
  5
6B6A
330
6B69
100
AcDbEntity
  8
标注
 62
     3
370
    -2
100
AcDbLine
 10
767.6634640786565
 20
192.1849157894781
 30
0.0
 11
769.5661574783931
 21
192.1849157894781
 31
0.0
  0
LINE
  5
6B6B
330
6B69
100
AcDbEntity
  8
标注
 62
     3
370
    -2
100
AcDbLine
 10
767.6634640786565
 20
174.233636469115
 30
0.0
 11
769.5661574783931
 21
174.233636469115
 31
0.0
  0
LINE
  5
6B6C
330
6B69
100
AcDbEntity
  8
标注
 62
     3
370
    -2
100
AcDbLine
 10
769.2461574783931
 20
191.5349157894781
 30
0.0
 11
769.2461574783931
 21
183.9444568932801
 31
0.0
  0
LINE
  5
6B6D
330
6B69
100
AcDbEntity
  8
标注
 62
     3
370
    -2
100
AcDbLine
 10
769.2461574783931
 20
174.883636469115
 30
0.0
 11
769.2461574783931
 21
182.4740953653129
 31
0.0
  0
SOLID
  5
6B6E
330
6B69
100
AcDbEntity
  8
标注
 62
     3
100
AcDbTrace
 10
769.1378241450597
 20
191.5349157894781
 30
0.0
 11
769.3544908117265
 21
191.5349157894781
 31
0.0
 12
769.2461574783931
 22
192.1849157894781
 32
0.0
 13
769.2461574783931
 23
192.1849157894781
 33
0.0
  0
SOLID
  5
6B6F
330
6B69
100
AcDbEntity
  8
标注
 62
     3
100
AcDbTrace
 10
769.1378241450597
 20
174.883636469115
 30
0.0
 11
769.3544908117265
 21
174.883636469115
 31
0.0
 12
769.2461574783931
 22
174.233636469115
 32
0.0
 13
769.2461574783931
 23
174.233636469115
 33
0.0
  0
MTEXT
  5
6B70
330
6B69
100
AcDbEntity
  8
标注
100
AcDbMText
 10
769.2461574783931
 20
183.2092761292966
 30
0.0
 40
0.65
 41
0.0
 71
     5
 72
     1
  1
\A1;18
 11
0.0000000000000001
 21
1.0
 31
0.0
 73
     1
 44
1.0
  0
POINT
  5
6B71
330
6B69
100
AcDbEntity
  8
DEFPOINTS
 62
     0
100
AcDbPoint
 10
766.7834640786566
 20
192.1849157894781
 30
0.0
  0
POINT
  5
6B72
330
6B69
100
AcDbEntity
  8
DEFPOINTS
 62
     0
100
AcDbPoint
 10
766.7834640786566
 20
174.233636469115
 30
0.0
  0
POINT
  5
6B73
330
6B69
100
AcDbEntity
  8
DEFPOINTS
 62
     0
100
AcDbPoint
 10
769.2461574783931
 20
174.233636469115
 30
0.0
  0
ENDBLK
  5
6B75
330
6B69
100
AcDbEntity
  8
0
100
AcDbBlockEnd
  0
BLOCK
  5
6B82
330
6B77
100
AcDbEntity
  8
0
100
AcDbBlockBegin
  2
*D209
 70
     1
 10
0.0
 20
0.0
 30
0.0
  3
*D209
  1

  0
LINE
  5
6B78
330
6B77
100
AcDbEntity
  8
标注
 62
     3
370
    -2
100
AcDbLine
 10
766.7834640786566
 20
173.353636469115
 30
0.0
 11
766.7834640786566
 21
171.5908901912531
 31
0.0
  0
LINE
  5
6B79
330
6B77
100
AcDbEntity
  8
标注
 62
     3
370
    -2
100
AcDbLine
 10
739.4998026616624
 20
173.353636469115
 30
0.0
 11
739.4998026616624
 21
171.5908901912531
 31
0.0
  0
LINE
  5
6B7A
330
6B77
100
AcDbEntity
  8
标注
 62
     3
370
    -2
100
AcDbLine
 10
766.1334640786566
 20
171.9108901912531
 30
0.0
 11
754.6689184997639
 21
171.9108901912531
 31
0.0
  0
LINE
  5
6B7B
330
6B77
100
AcDbEntity
  8
标注
 62
     3
370
    -2
100
AcDbLine
 10
740.1498026616624
 20
171.9108901912531
 30
0.0
 11
751.6143482405551
 21
171.9108901912531
 31
0.0
  0
SOLID
  5
6B7C
330
6B77
100
AcDbEntity
  8
标注
 62
     3
100
AcDbTrace
 10
766.1334640786566
 20
172.0192235245864
 30
0.0
 11
766.1334640786566
 21
171.8025568579198
 31
0.0
 12
766.7834640786566
 22
171.9108901912531
 32
0.0
 13
766.7834640786566
 23
171.9108901912531
 33
0.0
  0
SOLID
  5
6B7D
330
6B77
100
AcDbEntity
  8
标注
 62
     3
100
AcDbTrace
 10
740.1498026616624
 20
172.0192235245864
 30
0.0
 11
740.1498026616624
 21
171.8025568579198
 31
0.0
 12
739.4998026616624
 22
171.9108901912531
 32
0.0
 13
739.4998026616624
 23
171.9108901912531
 33
0.0
  0
MTEXT
  5
6B7E
330
6B77
100
AcDbEntity
  8
标注
100
AcDbMText
 10
753.1416333701595
 20
171.9108901912531
 30
0.0
 40
0.65
 41
0.0
 71
     5
 72
     1
  1
\A1;27 1/4
 73
     1
 44
1.0
  0
POINT
  5
6B7F
330
6B77
100
AcDbEntity
  8
DEFPOINTS
 62
     0
100
AcDbPoint
 10
766.7834640786566
 20
174.233636469115
 30
0.0
  0
POINT
  5
6B80
330
6B77
100
AcDbEntity
  8
DEFPOINTS
 62
     0
100
AcDbPoint
 10
739.4998026616624
 20
174.233636469115
 30
0.0
  0
POINT
  5
6B81
330
6B77
100
AcDbEntity
  8
DEFPOINTS
 62
     0
100
AcDbPoint
 10
739.4998026616624
 20
171.9108901912531
 30
0.0
  0
ENDBLK
  5
6B83
330
6B77
100
AcDbEntity
  8
0
100
AcDbBlockEnd
  0
ENDSEC
  0
SECTION
  2
ENTITIES
  0
INSERT
  5
695E
330
6574
100
AcDbEntity
  8
标注
100
AcDbBlockReference
  2
*U155
 10
-124.6625443243793
 20
63.7214169539898
 30
0.0
  0
INSERT
  5
695F
330
6574
100
AcDbEntity
  8
标注
100
AcDbBlockReference
  2
*U156
 10
-124.6625443243793
 20
63.7214169539898
 30
0.0
  0
INSERT
  5
6960
330
6574
100
AcDbEntity
  8
标注
100
AcDbBlockReference
  2
*U157
 10
-124.6625443243793
 20
63.7214169539898
 30
0.0
  0
LINE
  5
6961
330
6574
100
AcDbEntity
  8
中心线
  6
Continuous
 62
     1
100
AcDbLine
 10
747.0353456818575
 20
170.0200957113691
 30
0.0
 11
753.2521506858917
 21
170.0200957113691
 31
0.0
  0
LINE
  5
6962
330
6574
100
AcDbEntity
  8
0
100
AcDbLine
 10
738.1600344701941
 20
229.5929338744115
 30
0.0
 11
738.1600344701941
 21
210.3429338746381
 31
0.0
  0
LINE
  5
6963
330
6574
100
AcDbEntity
  8
0
100
AcDbLine
 10
768.1602313202301
 20
229.5929338744115
 30
0.0
 11
738.1600344701941
 21
229.5929338744115
 31
0.0
  0
LINE
  5
6964
330
6574
100
AcDbEntity
  8
0
100
AcDbLine
 10
768.1602313202301
 20
210.3429338746381
 30
0.0
 11
768.1602313202301
 21
229.5929338744115
 31
0.0
  0
LINE
  5
6965
330
6574
100
AcDbEntity
  8
0
100
AcDbLine
 10
766.7232234462398
 20
212.092933874624
 30
0.0
 11
766.7232234462398
 21
228.0929338744378
 31
0.0
  0
LINE
  5
6966
330
6574
100
AcDbEntity
  8
0
100
AcDbLine
 10
739.5970423442003
 20
228.0929338744378
 30
0.0
 11
739.5970423442003
 21
212.092933874624
 31
0.0
  0
LINE
  5
6967
330
6574
100
AcDbEntity
  8
0
100
AcDbLine
 10
739.5970423442003
 20
212.092933874624
 30
0.0
 11
766.7232234462398
 21
212.092933874624
 31
0.0
  0
LINE
  5
6968
330
6574
100
AcDbEntity
  8
0
100
AcDbLine
 10
766.7232234462398
 20
228.0929338744378
 30
0.0
 11
739.5970423442003
 21
228.0929338744378
 31
0.0
  0
LINE
  5
6969
330
6574
100
AcDbEntity
  8
0
100
AcDbLine
 10
766.7232234462398
 20
220.9809658431962
 30
0.0
 11
766.7232234462398
 21
220.9809658431962
 31
0.0
  0
INSERT
  5
696A
330
6574
100
AcDbEntity
  8
标注
100
AcDbBlockReference
  2
*U158
 10
-124.662544324372
 20
63.5245665602752
 30
0.0
  0
CIRCLE
  5
696B
330
6574
100
AcDbEntity
  8
细实线
100
AcDbCircle
 10
753.1601328952199
 20
223.3685244256569
 30
0.0
 40
2.165354330682676
  0
CIRCLE
  5
696C
330
6574
100
AcDbEntity
  8
0
100
AcDbCircle
 10
753.1601328952199
 20
223.3685244256569
 30
0.0
 40
1.791338582655505
  0
LINE
  5
696D
330
6574
100
AcDbEntity
  8
0
100
AcDbLine
 10
739.5970423442003
 20
212.092933874624
 30
0.0
 11
751.3234310362821
 21
222.0117869014897
 31
0.0
  0
LINE
  5
696E
330
6574
100
AcDbEntity
  8
0
100
AcDbLine
 10
751.413814641549
 20
222.0882385457446
 30
0.0
 11
751.416712564521
 21
222.090689775428
 31
0.0
  0
LINE
  5
696F
330
6574
100
AcDbEntity
  8
0
100
AcDbLine
 10
739.5970423442003
 20
228.0929338744378
 30
0.0
 11
751.0605380712793
 21
224.2662504436432
 31
0.0
  0
ARC
  5
6970
330
6574
100
AcDbEntity
  8
0
100
AcDbCircle
 10
753.1601328952131
 20
359.9699023832207
 30
0.0
 40
150.3769685085604
100
AcDbArc
 50
264.2752270483486
 51
275.7247729516513
  0
LINE
  5
6971
330
6574
100
AcDbEntity
  8
0
100
AcDbLine
 10
750.8766683283099
 20
236.7047832168128
 30
0.0
 11
755.4435974621147
 21
236.7047832168128
 31
0.0
  0
LINE
  5
6972
330
6574
100
AcDbEntity
  8
0
100
AcDbLine
 10
738.1600344701941
 20
246.7835233741811
 30
0.0
 11
768.1602313202301
 21
246.7835233741811
 31
0.0
  0
LINE
  5
6973
330
6574
100
AcDbEntity
  8
0
100
AcDbLine
 10
738.1600344701941
 20
246.7835233741811
 30
0.0
 11
738.1600344701941
 21
237.7835233742822
 31
0.0
  0
LINE
  5
6974
330
6574
100
AcDbEntity
  8
0
100
AcDbLine
 10
766.7232234462398
 20
236.9939546866886
 30
0.0
 11
766.7232234462398
 21
237.7835233742822
 31
0.0
  0
LINE
  5
6975
330
6574
100
AcDbEntity
  8
虚线
  6
HIDDEN
100
AcDbLine
 10
739.5970423442003
 20
246.7835233741811
 30
0.0
 11
739.5970423442003
 21
237.7835233742822
 31
0.0
  0
LINE
  5
6977
330
6574
100
AcDbEntity
  8
0
100
AcDbLine
 10
768.1602313202301
 20
246.7835233741811
 30
0.0
 11
768.1602313202301
 21
237.7835233742822
 31
0.0
  0
LINE
  5
6978
330
6574
100
AcDbEntity
  8
0
100
AcDbLine
 10
768.1602313202301
 20
237.7835233742822
 30
0.0
 11
767.5696801462695
 21
237.7835233742822
 31
0.0
  0
LINE
  5
6979
330
6574
100
AcDbEntity
  8
0
100
AcDbLine
 10
766.7232234462398
 20
212.092933874624
 30
0.0
 11
754.9968347541907
 21
222.0117869013968
 31
0.0
  0
LINE
  5
697A
330
6574
100
AcDbEntity
  8
0
100
AcDbLine
 10
754.9064511488609
 20
222.088238545704
 30
0.0
 11
754.9035532258749
 21
222.090689775399
 31
0.0
  0
LINE
  5
697B
330
6574
100
AcDbEntity
  8
0
100
AcDbLine
 10
766.7232234462398
 20
228.0929338744378
 30
0.0
 11
755.2597277192485
 21
224.2662504436726
 31
0.0
  0
LINE
  5
6980
330
6574
100
AcDbEntity
  8
虚线
  6
HIDDEN
100
AcDbLine
 10
766.7232234462398
 20
237.7835233742822
 30
0.0
 11
766.7232234462398
 21
246.7835233741811
 31
0.0
  0
LINE
  5
6981
330
6574
100
AcDbEntity
  8
0
100
AcDbLine
 10
739.5970423442003
 20
237.7835233742822
 30
0.0
 11
739.5970423442003
 21
236.9939546866886
 31
0.0
  0
LINE
  5
6982
330
6574
100
AcDbEntity
  8
0
100
AcDbLine
 10
751.3884793519272
 20
236.5187671961873
 30
0.0
 11
754.9317864384979
 21
236.5187671961873
 31
0.0
  0
LINE
  5
6983
330
6574
100
AcDbEntity
  8
0
100
AcDbLine
 10
750.8249518588051
 20
236.7047832168128
 30
0.0
 11
755.4953139317067
 21
236.7047832168128
 31
0.0
  0
LINE
  5
6984
330
6574
100
AcDbEntity
  8
0
100
AcDbLine
 10
766.6303204744882
 20
236.8763657822796
 30
0.0
 11
755.4953139316626
 21
236.7047832168128
 31
0.0
  0
LINE
  5
6985
330
6574
100
AcDbEntity
  8
0
100
AcDbLine
 10
739.6899453159367
 20
236.8763657822796
 30
0.0
 11
750.8249518587762
 21
236.7047832168128
 31
0.0
  0
LINE
  5
6986
330
6574
100
AcDbEntity
  8
0
100
AcDbLine
 10
750.864131878399
 20
236.6828683182204
 30
0.0
 11
750.9409768461547
 21
236.5618424396491
 31
0.0
  0
LINE
  5
6987
330
6574
100
AcDbEntity
  8
0
100
AcDbLine
 10
751.0207440496506
 20
236.5180021637756
 30
0.0
 11
751.3884793519272
 21
236.5180021637756
 31
0.0
  0
LINE
  5
6988
330
6574
100
AcDbEntity
  8
0
100
AcDbLine
 10
755.2995217407742
 20
236.5180021637756
 30
0.0
 11
754.9317864384979
 21
236.5180021637756
 31
0.0
  0
LINE
  5
6989
330
6574
100
AcDbEntity
  8
0
100
AcDbLine
 10
755.4561339120257
 20
236.6828683182204
 30
0.0
 11
755.37928894427
 21
236.5618424396491
 31
0.0
  0
ARC
  5
698A
330
6574
100
AcDbEntity
  8
0
100
AcDbCircle
 10
750.8242482766583
 20
236.657544361656
 30
0.0
 40
0.047244094487622
100
AcDbArc
 50
32.41336607683297
 51
89.14669173437006
  0
ARC
  5
698B
330
6574
100
AcDbEntity
  8
0
100
AcDbCircle
 10
755.4960175137818
 20
236.657544361656
 30
0.0
 40
0.047244094487622
100
AcDbArc
 50
90.85330826562993
 51
147.586633923167
  0
ARC
  5
698C
330
6574
100
AcDbEntity
  8
0
100
AcDbCircle
 10
751.0207440496506
 20
236.6124903527488
 30
0.0
 40
0.0944881889752442
100
AcDbArc
 50
212.413366076833
 51
270.0
  0
ARC
  5
698D
330
6574
100
AcDbEntity
  8
0
100
AcDbCircle
 10
755.2995217407742
 20
236.6124903527488
 30
0.0
 40
0.0944881889752442
100
AcDbArc
 50
270.0
 51
327.586633923167
  0
ARC
  5
698E
330
6574
100
AcDbEntity
  8
0
100
AcDbCircle
 10
766.6287352572519
 20
236.9939546866886
 30
0.0
 40
0.0944881889752442
100
AcDbArc
 50
270.85330826563
 51
0.0
  0
ARC
  5
698F
330
6574
100
AcDbEntity
  8
0
100
AcDbCircle
 10
739.6915305331726
 20
236.9939546866886
 30
0.0
 40
0.0944881889752442
100
AcDbArc
 50
180.0
 51
269.1466917343701
  0
LINE
  5
6990
330
6574
100
AcDbEntity
  8
中心线
  6
Continuous
 62
     1
100
AcDbLine
 10
739.4998026616624
 20
192.1849157894781
 30
0.0
 11
739.4998026616624
 21
174.233636469115
 31
0.0
  0
LINE
  5
6991
330
6574
100
AcDbEntity
  8
中心线
  6
Continuous
 62
     1
100
AcDbLine
 10
766.7834640786566
 20
192.1849157894781
 30
0.0
 11
739.4998026616624
 21
192.1849157894781
 31
0.0
  0
LINE
  5
6992
330
6574
100
AcDbEntity
  8
中心线
  6
Continuous
 62
     1
100
AcDbLine
 10
766.7834640786566
 20
174.233636469115
 30
0.0
 11
766.7834640786566
 21
192.1849157894781
 31
0.0
  0
LINE
  5
6993
330
6574
100
AcDbEntity
  8
中心线
  6
Continuous
 62
     1
100
AcDbLine
 10
766.7834640786566
 20
174.233636469115
 30
0.0
 11
739.4998026616624
 21
174.233636469115
 31
0.0
  0
LINE
  5
6A60
330
6574
100
AcDbEntity
  8
0
100
AcDbLine
 10
738.7505856512939
 20
211.305532299824
 30
0.0
 11
767.5696801462695
 21
211.305532299824
 31
0.0
  0
LINE
  5
6A61
330
6574
100
AcDbEntity
  8
0
100
AcDbLine
 10
738.7505856512939
 20
216.2484456859368
 30
0.0
 11
738.7505856512939
 21
211.305532299824
 31
0.0
  0
LINE
  5
6A62
330
6574
100
AcDbEntity
  8
0
100
AcDbLine
 10
767.5696801462695
 20
216.2484456859368
 30
0.0
 11
767.5696801462695
 21
211.305532299824
 31
0.0
  0
LINE
  5
6A63
330
6574
100
AcDbEntity
  8
标注
100
AcDbLine
 10
768.1602313202301
 20
216.2484456859368
 30
0.0
 11
767.5696801462695
 21
216.2484456859368
 31
0.0
  0
LINE
  5
6A65
330
6574
100
AcDbEntity
  8
标注
100
AcDbLine
 10
738.7505856512939
 20
216.2484456859368
 30
0.0
 11
738.1600344701941
 21
216.2484456859368
 31
0.0
  0
LINE
  5
6A67
330
6574
100
AcDbEntity
  8
0
100
AcDbLine
 10
738.160034470195
 20
237.7835233742822
 30
0.0
 11
738.7505856441554
 21
237.7835233742822
 31
0.0
  0
DIMENSION
  5
6B08
330
6574
100
AcDbEntity
  8
标注
100
AcDbDimension
  2
*D202
 10
769.9864430920893
 20
237.7835233742822
 30
0.0
 11
769.9864430920893
 21
242.2835233742318
 31
0.0
 70
    32
 71
     5
 42
8.999999999898903
  3
副本STANDARD
100
AcDbAlignedDimension
 13
768.1602313202301
 23
246.7835233741811
 33
0.0
 14
768.1602313202301
 24
237.7835233742822
 34
0.0
 50
90.0
100
AcDbRotatedDimension
  0
DIMENSION
  5
6B16
330
6574
100
AcDbEntity
  8
标注
100
AcDbDimension
  2
*D203
 10
771.9479555131544
 20
246.7835233741811
 30
0.0
 11
771.9479555131544
 21
241.7441532954971
 31
0.0
 70
    32
 71
     5
 42
10.07874015736828
  3
副本STANDARD
100
AcDbAlignedDimension
 13
753.1601328952123
 23
236.7047832168128
 33
0.0
 14
768.1602313202301
 24
246.7835233741811
 34
0.0
 50
90.0
100
AcDbRotatedDimension
  0
DIMENSION
  5
6B24
330
6574
100
AcDbEntity
  8
标注
100
AcDbDimension
  2
*D204
 10
769.9749677484244
 20
212.092933874624
 30
0.0
 11
769.9749677484244
 21
220.092933874531
 31
0.0
 70
    32
 71
     5
 42
15.99999999981384
  3
副本STANDARD
100
AcDbAlignedDimension
 13
766.7232234462398
 23
228.0929338744378
 33
0.0
 14
766.7232234462398
 24
212.092933874624
 34
0.0
 50
90.0
100
AcDbRotatedDimension
  0
DIMENSION
  5
6B32
330
6574
100
AcDbEntity
  8
标注
100
AcDbDimension
  2
*D205
 10
771.8470584550055
 20
209.5929338746603
 30
0.0
 11
771.8470584550055
 21
219.592933874536
 31
0.0
 70
    32
 71
     5
 42
19.99999999975122
  3
副本STANDARD
100
AcDbAlignedDimension
 13
768.1602313202301
 23
229.5929338744115
 33
0.0
 14
753.1601328952131
 24
209.5929338746603
 34
0.0
 50
90.0
100
AcDbRotatedDimension
  0
DIMENSION
  5
6B4A
330
6574
100
AcDbEntity
  8
标注
100
AcDbDimension
  2
*D206
 10
739.5970423442003
 20
208.0403638852903
 30
0.0
 11
753.16013289522
 21
208.0403638852903
 31
0.0
 70
    32
 71
     5
 42
27.12618110203948
  3
副本STANDARD
100
AcDbAlignedDimension
 13
766.7232234462398
 23
212.092933874624
 33
0.0
 14
739.5970423442003
 24
212.092933874624
 34
0.0
100
AcDbRotatedDimension
  0
DIMENSION
  5
6B58
330
6574
100
AcDbEntity
  8
标注
100
AcDbDimension
  2
*D207
 10
768.1602313230563
 20
206.3359930599453
 30
0.0
 11
753.1601328952128
 21
206.3359930599453
 31
0.0
 70
    32
 71
     5
 42
30.0001968556868
  3
副本STANDARD
100
AcDbAlignedDimension
 13
738.1600344673695
 23
210.3429338749348
 33
0.0
 14
768.1602313230563
 24
210.3429338749348
 34
0.0
100
AcDbRotatedDimension
  0
DIMENSION
  5
6B68
330
6574
100
AcDbEntity
  8
标注
100
AcDbDimension
  2
*D208
 10
769.2461574783931
 20
174.233636469115
 30
0.0
 11
769.2461574783931
 21
183.2092761292966
 31
0.0
 70
    32
 71
     5
 42
17.95127932036311
  3
副本STANDARD
100
AcDbAlignedDimension
 13
766.7834640786566
 23
192.1849157894781
 33
0.0
 14
766.7834640786566
 24
174.233636469115
 34
0.0
 50
90.0
100
AcDbRotatedDimension
  0
DIMENSION
  5
6B76
330
6574
100
AcDbEntity
  8
标注
100
AcDbDimension
  2
*D209
 10
739.4998026616624
 20
171.9108901912531
 30
0.0
 11
753.1416333701595
 21
171.9108901912531
 31
0.0
 70
    32
 71
     5
 42
27.28366141699416
  3
副本STANDARD
100
AcDbAlignedDimension
 13
766.7834640786566
 23
174.233636469115
 33
0.0
 14
739.4998026616624
 24
174.233636469115
 34
0.0
100
AcDbRotatedDimension
  0
ENDSEC
  0
SECTION
  2
OBJECTS
  0
DICTIONARY
  5
654A
330
0
100
AcDbDictionary
281
     1
  3
ACAD_COLOR
350
656D
  3
ACAD_GROUP
350
654B
  3
ACAD_LAYOUT
350
656C
  3
ACAD_MATERIAL
350
654E
  3
ACAD_MLINESTYLE
350
6569
  3
ACAD_PLOTSETTINGS
350
656B
  3
ACAD_PLOTSTYLENAME
350
654C
  3
ACAD_TABLESTYLE
350
656E
  3
ACAD_VISUALSTYLE
350
6552
  3
AcDbVariableDictionary
350
6808
  0
DICTIONARY
  5
6AB9
330
6540
100
AcDbDictionary
280
     1
281
     1
  3
ACAD_LAYERSTATES
360
6ABA
  0
DICTIONARY
  5
6778
330
6574
100
AcDbDictionary
280
     1
281
     1
  3
ACAD_SORTENTS
360
6779
  0
DICTIONARY
  5
656D
102
{ACAD_REACTORS
330
654A
102
}
330
654A
100
AcDbDictionary
281
     1
  0
DICTIONARY
  5
654B
102
{ACAD_REACTORS
330
654A
102
}
330
654A
100
AcDbDictionary
281
     1
  0
DICTIONARY
  5
656C
102
{ACAD_REACTORS
330
654A
102
}
330
654A
100
AcDbDictionary
281
     1
  3
Model
350
6577
  3
布局1
350
6573
  0
DICTIONARY
  5
654E
102
{ACAD_REACTORS
330
654A
102
}
330
654A
100
AcDbDictionary
281
     1
  3
ByBlock
350
6550
  3
ByLayer
350
654F
  3
Global
350
6551
  0
DICTIONARY
  5
6569
102
{ACAD_REACTORS
330
654A
102
}
330
654A
100
AcDbDictionary
281
     1
  3
Standard
350
656A
  0
DICTIONARY
  5
656B
102
{ACAD_REACTORS
330
654A
102
}
330
654A
100
AcDbDictionary
281
     1
  0
ACDBDICTIONARYWDFLT
  5
654C
102
{ACAD_REACTORS
330
654A
102
}
330
654A
100
AcDbDictionary
281
     1
  3
Normal
350
654D
100
AcDbDictionaryWithDefault
340
654D
  0
DICTIONARY
  5
656E
102
{ACAD_REACTORS
330
654A
102
}
330
654A
100
AcDbDictionary
281
     1
  3
Standard
350
656F
  0
DICTIONARY
  5
6552
102
{ACAD_REACTORS
330
654A
102
}
330
654A
100
AcDbDictionary
281
     1
  3
2dWireframe
350
6558
  3
3D Hidden
350
655A
  3
3dWireframe
350
6559
  3
Basic
350
6557
  3
Brighten
350
655E
  3
ColorChange
350
6562
  3
Conceptual
350
655B
  3
Dim
350
655D
  3
Facepattern
350
6561
  3
Flat
350
6553
  3
FlatWithEdges
350
6554
  3
Gouraud
350
6555
  3
GouraudWithEdges
350
6556
  3
Linepattern
350
6560
  3
Realistic
350
655C
  3
Thicken
350
655F
  0
DICTIONARY
  5
6808
102
{ACAD_REACTORS
330
654A
102
}
330
654A
100
AcDbDictionary
281
     1
  3
CTABLESTYLE
350
6809
  0
DICTIONARY
  5
6ABA
102
{ACAD_REACTORS
330
6AB9
102
}
330
6AB9
100
AcDbDictionary
281
     1
  0
SORTENTSTABLE
  5
6779
102
{ACAD_REACTORS
330
6778
102
}
330
6778
100
AcDbSortentsTable
330
6574
331
696F
  5
6970
331
698B
  5
698C
331
6968
  5
6969
331
6A63
  5
6A63
331
6961
  5
6961
331
6984
  5
6985
331
6975
  5
6976
331
698C
  5
698D
331
6969
  5
696A
331
6962
  5
6962
331
6985
  5
6986
331
698D
  5
698E
331
696A
  5
696B
331
6A65
  5
6A65
331
6963
  5
6964
331
6986
  5
6987
331
6977
  5
6978
331
6990
  5
6991
331
6970
  5
6971
331
698E
  5
698F
331
696B
  5
696C
331
6964
  5
6965
331
6987
  5
6988
331
6978
  5
6979
331
6991
  5
6992
331
698F
  5
6990
331
6980
  5
6981
331
6971
  5
6972
331
696C
  5
696D
331
6965
  5
6966
331
6988
  5
6989
331
6979
  5
697A
331
6992
  5
6993
331
6A60
  5
6A61
331
695E
  5
695E
331
6981
  5
6982
331
6972
  5
6973
331
696D
  5
696E
331
6966
  5
6967
331
6989
  5
698A
331
697A
  5
697B
331
6993
  5
6994
331
6A61
  5
6963
331
695F
  5
695F
331
6982
  5
6983
331
6973
  5
6974
331
696E
  5
696F
331
6967
  5
6968
331
698A
  5
698B
331
697B
  5
697C
331
6A62
  5
6A62
331
6960
  5
6960
331
6983
  5
6984
331
6974
  5
6975
  0
LAYOUT
  5
6577
102
{ACAD_REACTORS
330
656C
102
}
330
656C
100
AcDbPlotSettings
  1

  2
\\Jw2dstap8i27w9o\KONICA MINOLTA 185
  4

  6

 40
0.0
 41
0.0
 42
0.0
 43
0.0
 44
0.0
 45
0.0
 46
0.0
 47
0.0
 48
0.0
 49
0.0
140
0.0
141
0.0
142
1.0
143
1.0
 70
  1712
 72
     0
 73
     0
 74
     0
  7

 75
     0
147
1.0
 76
     0
 77
     2
 78
   300
148
0.0
149
0.0
100
AcDbLayout
  1
Model
 70
     1
 71
     0
 10
0.0
 20
0.0
 11
12.0
 21
9.0
 12
0.0
 22
0.0
 32
0.0
 14
0.0
 24
0.0
 34
0.0
 15
0.0
 25
0.0
 35
0.0
146
0.0
 13
0.0
 23
0.0
 33
0.0
 16
1.0
 26
0.0
 36
0.0
 17
0.0
 27
1.0
 37
0.0
 76
     0
330
6574
331
6579
  0
LAYOUT
  5
6573
102
{ACAD_REACTORS
330
656C
102
}
330
656C
100
AcDbPlotSettings
  1

  2
\\Jw2dstap8i27w9o\KONICA MINOLTA 185
  4

  6

 40
0.0
 41
0.0
 42
0.0
 43
0.0
 44
0.0
 45
0.0
 46
0.0
 47
0.0
 48
0.0
 49
0.0
140
0.0
141
0.0
142
1.0
143
1.0
 70
   688
 72
     0
 73
     0
 74
     5
  7

 75
    16
147
1.0
 76
     0
 77
     2
 78
   300
148
0.0
149
0.0
100
AcDbLayout
  1
布局1
 70
     1
 71
     1
 10
0.0
 20
0.0
 11
12.0
 21
9.0
 12
0.0
 22
0.0
 32
0.0
 14
1.000000000000000E+20
 24
1.000000000000000E+20
 34
1.000000000000000E+20
 15
-1.000000000000000E+20
 25
-1.000000000000000E+20
 35
-1.000000000000000E+20
146
0.0
 13
0.0
 23
0.0
 33
0.0
 16
1.0
 26
0.0
 36
0.0
 17
0.0
 27
1.0
 37
0.0
 76
     0
330
6570
  0
MATERIAL
  5
6550
102
{ACAD_XDICTIONARY
360
680C
102
}
102
{ACAD_REACTORS
330
654E
102
}
330
654E
100
AcDbMaterial
  1
ByBlock
  0
MATERIAL
  5
654F
102
{ACAD_XDICTIONARY
360
680A
102
}
102
{ACAD_REACTORS
330
654E
102
}
330
654E
100
AcDbMaterial
  1
ByLayer
  0
MATERIAL
  5
6551
102
{ACAD_XDICTIONARY
360
680E
102
}
102
{ACAD_REACTORS
330
654E
102
}
330
654E
100
AcDbMaterial
  1
Global
  0
MLINESTYLE
  5
656A
102
{ACAD_REACTORS
330
6569
102
}
330
6569
100
AcDbMlineStyle
  2
STANDARD
 70
     0
  3

 62
   256
 51
90.0
 52
90.0
 71
     2
 49
0.5
 62
   256
  6
BYLAYER
 49
-0.5
 62
   256
  6
BYLAYER
  0
ACDBPLACEHOLDER
  5
654D
102
{ACAD_REACTORS
330
654C
102
}
330
654C
  0
TABLESTYLE
  5
656F
102
{ACAD_XDICTIONARY
360
6B96
102
}
102
{ACAD_REACTORS
330
656E
102
}
330
656E
100
AcDbTableStyle
  3
Standard
 70
     0
 71
     0
 40
0.06
 41
0.06
280
     0
281
     0
  7
STANDARD
140
0.18
170
     2
 62
     0
 63
     7
283
     0
274
    -2
284
     1
 64
     0
275
    -2
285
     1
 65
     0
276
    -2
286
     1
 66
     0
277
    -2
287
     1
 67
     0
278
    -2
288
     1
 68
     0
279
    -2
289
     1
 69
     0
  7
STANDARD
140
0.25
170
     5
 62
     0
 63
     7
283
     0
274
    -2
284
     1
 64
     0
275
    -2
285
     1
 65
     0
276
    -2
286
     1
 66
     0
277
    -2
287
     1
 67
     0
278
    -2
288
     1
 68
     0
279
    -2
289
     1
 69
     0
  7
STANDARD
140
0.18
170
     5
 62
     0
 63
     7
283
     0
274
    -2
284
     1
 64
     0
275
    -2
285
     1
 65
     0
276
    -2
286
     1
 66
     0
277
    -2
287
     1
 67
     0
278
    -2
288
     1
 68
     0
279
    -2
289
     1
 69
     0
  0
VISUALSTYLE
  5
6558
102
{ACAD_REACTORS
330
6552
102
}
330
6552
100
AcDbVisualStyle
  2
2dWireframe
 70
     4
 71
     0
 72
     2
 73
     0
 90
        0
 40
-0.6
 41
-30.0
 62
     5
 63
     7
421
 16777215
 74
     1
 91
        4
 64
     7
 65
   257
 75
     1
175
     1
 42
1.0
 92
        0
 66
   257
 43
1.0
 76
     1
 77
     6
 78
     2
 67
     7
 79
     5
170
     0
171
     0
290
     0
174
     0
 93
        1
 44
0.0
173
     0
291
     0
 45
0.0
1001
ACAD
1000
AcDbSavedByObjectVersion
1070
     0
1000
AcDbSavedByObjectVersion
1070
     0
1000
AcDbSavedByObjectVersion
1070
     0
  0
VISUALSTYLE
  5
655A
102
{ACAD_REACTORS
330
6552
102
}
330
6552
100
AcDbVisualStyle
  2
3D Hidden
 70
     6
 71
     1
 72
     2
 73
     2
 90
        0
 40
-0.6
 41
-30.0
 62
     5
 63
     7
421
 16777215
 74
     2
 91
        2
 64
     7
 65
   257
 75
     2
175
     1
 42
40.0
 92
        0
 66
   257
 43
1.0
 76
     1
 77
     6
 78
     2
 67
     7
 79
     3
170
     0
171
     0
290
     0
174
     0
 93
        1
 44
0.0
173
     0
291
     0
 45
0.0
1001
ACAD
1000
AcDbSavedByObjectVersion
1070
     0
1000
AcDbSavedByObjectVersion
1070
     0
1000
AcDbSavedByObjectVersion
1070
     0
  0
VISUALSTYLE
  5
6559
102
{ACAD_REACTORS
330
6552
102
}
330
6552
100
AcDbVisualStyle
  2
3dWireframe
 70
     5
 71
     0
 72
     2
 73
     0
 90
        0
 40
-0.6
 41
-30.0
 62
     5
 63
     7
421
 16777215
 74
     1
 91
        4
 64
     7
 65
   257
 75
     1
175
     1
 42
1.0
 92
        0
 66
   257
 43
1.0
 76
     1
 77
     6
 78
     2
 67
     7
 79
     5
170
     0
171
     0
290
     0
174
     0
 93
        1
 44
0.0
173
     0
291
     0
 45
0.0
1001
ACAD
1000
AcDbSavedByObjectVersion
1070
     0
1000
AcDbSavedByObjectVersion
1070
     0
1000
AcDbSavedByObjectVersion
1070
     0
  0
VISUALSTYLE
  5
6557
102
{ACAD_REACTORS
330
6552
102
}
330
6552
100
AcDbVisualStyle
  2
Basic
 70
     7
 71
     1
 72
     0
 73
     1
 90
        0
 40
-0.6
 41
-30.0
 62
     5
 63
     7
421
 16777215
 74
     0
 91
        4
 64
     7
 65
   257
 75
     1
175
     1
 42
1.0
 92
        8
 66
     7
 43
1.0
 76
     1
 77
     6
 78
     2
 67
     7
 79
     5
170
     0
171
     0
290
     0
174
     0
 93
        1
 44
0.0
173
     0
291
     1
 45
0.0
1001
ACAD
1000
AcDbSavedByObjectVersion
1070
     0
1000
AcDbSavedByObjectVersion
1070
     0
1000
AcDbSavedByObjectVersion
1070
     0
  0
VISUALSTYLE
  5
655E
102
{ACAD_REACTORS
330
6552
102
}
330
6552
100
AcDbVisualStyle
  2
Brighten
 70
    12
 71
     2
 72
     2
 73
     0
 90
        0
 40
-0.6
 41
-30.0
 62
     5
 63
     7
421
 16777215
 74
     1
 91
        4
 64
     7
 65
   257
 75
     1
175
     1
 42
1.0
 92
        8
 66
     7
 43
1.0
 76
     1
 77
     6
 78
     2
 67
     7
 79
     5
170
     0
171
     0
290
     0
174
     0
 93
        1
 44
50.0
173
     0
291
     1
 45
0.0
1001
ACAD
1000
AcDbSavedByObjectVersion
1070
     0
1000
AcDbSavedByObjectVersion
1070
     0
1000
AcDbSavedByObjectVersion
1070
     0
  0
VISUALSTYLE
  5
6562
102
{ACAD_REACTORS
330
6552
102
}
330
6552
100
AcDbVisualStyle
  2
ColorChange
 70
    16
 71
     2
 72
     2
 73
     3
 90
        0
 40
-0.6
 41
-30.0
 62
     5
 63
     8
421
  8421504
 74
     1
 91
        4
 64
     7
 65
   257
 75
     1
175
     1
 42
1.0
 92
        8
 66
     8
424
  8421504
 43
1.0
 76
     1
 77
     6
 78
     2
 67
     7
 79
     5
170
     0
171
     0
290
     0
174
     0
 93
        1
 44
0.0
173
     0
291
     1
 45
0.0
1001
ACAD
1000
AcDbSavedByObjectVersion
1070
     0
1000
AcDbSavedByObjectVersion
1070
     0
1000
AcDbSavedByObjectVersion
1070
     0
  0
VISUALSTYLE
  5
655B
102
{ACAD_REACTORS
330
6552
102
}
330
6552
100
AcDbVisualStyle
  2
Conceptual
 70
     9
 71
     3
 72
     2
 73
     0
 90
        0
 40
-0.6
 41
-30.0
 62
     5
 63
     7
421
 16777215
 74
     2
 91
        2
 64
     7
 65
   257
 75
     1
175
     1
 42
40.0
 92
        8
 66
     7
 43
1.0
 76
     1
 77
     6
 78
     2
 67
     7
 79
     3
170
     0
171
     0
290
     0
174
     0
 93
        1
 44
0.0
173
     0
291
     0
 45
0.0
1001
ACAD
1000
AcDbSavedByObjectVersion
1070
     0
1000
AcDbSavedByObjectVersion
1070
     0
1000
AcDbSavedByObjectVersion
1070
     0
  0
VISUALSTYLE
  5
655D
102
{ACAD_REACTORS
330
6552
102
}
330
6552
100
AcDbVisualStyle
  2
Dim
 70
    11
 71
     2
 72
     2
 73
     0
 90
        0
 40
-0.6
 41
-30.0
 62
     5
 63
     7
421
 16777215
 74
     1
 91
        4
 64
     7
 65
   257
 75
     1
175
     1
 42
1.0
 92
        8
 66
     7
 43
1.0
 76
     1
 77
     6
 78
     2
 67
     7
 79
     5
170
     0
171
     0
290
     0
174
     0
 93
        1
 44
-50.0
173
     0
291
     1
 45
0.0
1001
ACAD
1000
AcDbSavedByObjectVersion
1070
     0
1000
AcDbSavedByObjectVersion
1070
     0
1000
AcDbSavedByObjectVersion
1070
     0
  0
VISUALSTYLE
  5
6561
102
{ACAD_REACTORS
330
6552
102
}
330
6552
100
AcDbVisualStyle
  2
Facepattern
 70
    15
 71
     2
 72
     2
 73
     0
 90
        0
 40
-0.6
 41
-30.0
 62
     5
 63
     7
421
 16777215
 74
     1
 91
        4
 64
     7
 65
   257
 75
     1
175
     1
 42
1.0
 92
        8
 66
     7
 43
1.0
 76
     1
 77
     6
 78
     2
 67
     7
 79
     5
170
     0
171
     0
290
     0
174
     0
 93
        1
 44
0.0
173
     0
291
     1
 45
0.0
1001
ACAD
1000
AcDbSavedByObjectVersion
1070
     0
1000
AcDbSavedByObjectVersion
1070
     0
1000
AcDbSavedByObjectVersion
1070
     0
  0
VISUALSTYLE
  5
6553
102
{ACAD_REACTORS
330
6552
102
}
330
6552
100
AcDbVisualStyle
  2
Flat
 70
     0
 71
     2
 72
     1
 73
     1
 90
        2
 40
-0.6
 41
30.0
 62
     5
 63
     7
421
 16777215
 74
     0
 91
        4
 64
     7
 65
   257
 75
     1
175
     1
 42
1.0
 92
        8
 66
     7
 43
1.0
 76
     1
 77
     6
 78
     2
 67
     7
 79
     5
170
     0
171
     0
290
     0
174
     0
 93
       13
 44
0.0
173
     0
291
     1
 45
0.0
1001
ACAD
1000
AcDbSavedByObjectVersion
1070
     0
1000
AcDbSavedByObjectVersion
1070
     0
1000
AcDbSavedByObjectVersion
1070
     0
  0
VISUALSTYLE
  5
6554
102
{ACAD_REACTORS
330
6552
102
}
330
6552
100
AcDbVisualStyle
  2
FlatWithEdges
 70
     1
 71
     2
 72
     1
 73
     1
 90
        2
 40
-0.6
 41
30.0
 62
     5
 63
     7
421
 16777215
 74
     1
 91
        4
 64
     7
 65
   257
 75
     1
175
     1
 42
1.0
 92
        0
 66
   257
 43
1.0
 76
     1
 77
     6
 78
     2
 67
     7
 79
     5
170
     0
171
     0
290
     0
174
     0
 93
       13
 44
0.0
173
     0
291
     1
 45
0.0
1001
ACAD
1000
AcDbSavedByObjectVersion
1070
     0
1000
AcDbSavedByObjectVersion
1070
     0
1000
AcDbSavedByObjectVersion
1070
     0
  0
VISUALSTYLE
  5
6555
102
{ACAD_REACTORS
330
6552
102
}
330
6552
100
AcDbVisualStyle
  2
Gouraud
 70
     2
 71
     2
 72
     2
 73
     1
 90
        2
 40
-0.6
 41
30.0
 62
     5
 63
     7
421
 16777215
 74
     0
 91
        4
 64
     7
 65
   257
 75
     1
175
     1
 42
1.0
 92
        0
 66
     7
 43
1.0
 76
     1
 77
     6
 78
     2
 67
     7
 79
     5
170
     0
171
     0
290
     0
174
     0
 93
       13
 44
0.0
173
     0
291
     1
 45
0.0
1001
ACAD
1000
AcDbSavedByObjectVersion
1070
     0
1000
AcDbSavedByObjectVersion
1070
     0
1000
AcDbSavedByObjectVersion
1070
     0
  0
VISUALSTYLE
  5
6556
102
{ACAD_REACTORS
330
6552
102
}
330
6552
100
AcDbVisualStyle
  2
GouraudWithEdges
 70
     3
 71
     2
 72
     2
 73
     1
 90
        2
 40
-0.6
 41
30.0
 62
     5
 63
     7
421
 16777215
 74
     1
 91
        4
 64
     7
 65
   257
 75
     1
175
     1
 42
1.0
 92
        0
 66
   257
 43
1.0
 76
     1
 77
     6
 78
     2
 67
     7
 79
     5
170
     0
171
     0
290
     0
174
     0
 93
       13
 44
0.0
173
     0
291
     1
 45
0.0
1001
ACAD
1000
AcDbSavedByObjectVersion
1070
     0
1000
AcDbSavedByObjectVersion
1070
     0
1000
AcDbSavedByObjectVersion
1070
     0
  0
VISUALSTYLE
  5
6560
102
{ACAD_REACTORS
330
6552
102
}
330
6552
100
AcDbVisualStyle
  2
Linepattern
 70
    14
 71
     2
 72
     2
 73
     0
 90
        0
 40
-0.6
 41
-30.0
 62
     5
 63
     7
421
 16777215
 74
     1
 91
        4
 64
     7
 65
   257
 75
     7
175
     7
 42
1.0
 92
        8
 66
     7
 43
1.0
 76
     1
 77
     6
 78
     2
 67
     7
 79
     5
170
     0
171
     0
290
     0
174
     0
 93
        1
 44
0.0
173
     0
291
     1
 45
0.0
1001
ACAD
1000
AcDbSavedByObjectVersion
1070
     0
1000
AcDbSavedByObjectVersion
1070
     0
1000
AcDbSavedByObjectVersion
1070
     0
  0
VISUALSTYLE
  5
655C
102
{ACAD_REACTORS
330
6552
102
}
330
6552
100
AcDbVisualStyle
  2
Realistic
 70
     8
 71
     2
 72
     2
 73
     0
 90
        0
 40
-0.6
 41
-30.0
 62
     5
 63
     7
421
 16777215
 74
     1
 91
        0
 64
     7
 65
   257
 75
     1
175
     1
 42
1.0
 92
        8
 66
     8
424
  7895160
 43
1.0
 76
     1
 77
     6
 78
     2
 67
     7
 79
     5
170
     0
171
     0
290
     0
174
     0
 93
       13
 44
0.0
173
     0
291
     0
 45
0.0
1001
ACAD
1000
AcDbSavedByObjectVersion
1070
     0
1000
AcDbSavedByObjectVersion
1070
     0
1000
AcDbSavedByObjectVersion
1070
     0
  0
VISUALSTYLE
  5
655F
102
{ACAD_REACTORS
330
6552
102
}
330
6552
100
AcDbVisualStyle
  2
Thicken
 70
    13
 71
     2
 72
     2
 73
     0
 90
        0
 40
-0.6
 41
-30.0
 62
     5
 63
     7
421
 16777215
 74
     1
 91
        4
 64
     7
 65
   257
 75
     1
175
     1
 42
1.0
 92
       12
 66
     7
 43
1.0
 76
     1
 77
     6
 78
     2
 67
     7
 79
     5
170
     0
171
     0
290
     0
174
     0
 93
        1
 44
0.0
173
     0
291
     1
 45
0.0
1001
ACAD
1000
AcDbSavedByObjectVersion
1070
     0
1000
AcDbSavedByObjectVersion
1070
     0
1000
AcDbSavedByObjectVersion
1070
     0
  0
DICTIONARYVAR
  5
6809
102
{ACAD_REACTORS
330
6808
102
}
330
6808
100
DictionaryVariables
280
     0
  1
STANDARD
  0
DICTIONARY
  5
680C
330
6550
100
AcDbDictionary
280
     1
281
     1
  3
ACAD_XREC_ROUNDTRIP
360
680D
  0
DICTIONARY
  5
680A
330
654F
100
AcDbDictionary
280
     1
281
     1
  3
ACAD_XREC_ROUNDTRIP
360
680B
  0
DICTIONARY
  5
680E
330
6551
100
AcDbDictionary
280
     1
281
     1
  3
ACAD_XREC_ROUNDTRIP
360
680F
  0
DICTIONARY
  5
6B96
330
656F
100
AcDbDictionary
280
     1
281
     1
  3
ACAD_XREC_ROUNDTRIP
360
6B97
  0
XRECORD
  5
680D
102
{ACAD_REACTORS
330
680C
102
}
330
680C
100
AcDbXrecord
280
     1
102
MATERIAL
148
0.0
149
0.0
149
0.0
 93
        0
 94
       63
282
     0
 72
     1
 77
     1
171
     1
175
     1
179
     1
273
     0
  0
XRECORD
  5
680B
102
{ACAD_REACTORS
330
680A
102
}
330
680A
100
AcDbXrecord
280
     1
102
MATERIAL
148
0.0
149
0.0
149
0.0
 93
        0
 94
       63
282
     0
 72
     1
 77
     1
171
     1
175
     1
179
     1
273
     0
  0
XRECORD
  5
680F
102
{ACAD_REACTORS
330
680E
102
}
330
680E
100
AcDbXrecord
280
     1
102
MATERIAL
148
0.0
149
0.0
149
0.0
 93
        0
 94
       63
282
     0
 72
     1
 77
     1
171
     1
175
     1
179
     1
273
     0
  0
XRECORD
  5
6B97
102
{ACAD_REACTORS
330
6B96
102
}
330
6B96
100
AcDbXrecord
280
     1
102
ACAD_ROUNDTRIP_PRE2007_TABLESTYLE
 90
      512
 91
        0
  1

 92
      512
 93
        0
  2

 94
      512
 95
        0
  3

  0
ENDSEC
  0
EOF
